当前位置: 首页 >> 港台电影 >> 初恋日记[国语配音/中文字幕].To.Love.Or.Not.To.Love.2017.2160p.WEB-DL.H265.DD2.0.2Audio-bt9527.cc 23.93GB >> 正文

初恋日记[国语配音/中文字幕].To.Love.Or.Not.To.Love.2017.2160p.WEB-DL.H265.DD2.0.2Audio-bt9527.cc 23.93GB

2021年11月20日 09:33:44     电影发布:来源于网络     电影分类:港台电影     评论(0)    

初恋日记[国语配音/中文字幕].To.Love.Or.Not.To.Love.2017.2160p.WEB DL.H265.DD2.0.2Audio bt9527.cc 23.93GB 爱情片 港台电影  第1张

◎译 名 初恋日记 / 初恋日记:贱男蜜扰 / To Love Or Not To Love

◎片 名 初戀日記:賤男蜜擾

◎年 代 2017

◎产 地 中国香港

◎类 别 爱情

◎语 言 粤语 / 汉语普通话

◎上映日期 2017-09-15(中国大陆) / 2017-03-02(中国香港)

◎IMDb链接 https://www.imdb.com/title/tt7249784/

◎豆瓣评分 5.2/10 (1534人评价)

◎豆瓣链接 https://movie.douban.com/subject/26969722/

◎片 长 114分钟

◎导 演 叶曦 Crosby Yip (id:1380392)

◎编 剧 叶曦 Crosby Yip (id:1380392)

◎演 员 王敏奕 Venus Wong (id:1313355)

马志威 Edward Ma (id:1331588)

符龙飞 Jason Fu (id:1368302)

林雪 Suet Lam (id:1274279)

罗家英 Kar-Ying Law (id:1108968)

苑琼丹 King-Tan Yuen (id:1274445)

黄一山 Gabriel Wong (id:1315440)

麦家琪 Teresa Mak (id:1023739)

利健森 J Radiate (id:1368625)

杜小乔 Siu-Kiu To (id:1366757)

贝依霖 Chantale Bui (id:1368303)

魏文青 Wenqing Wei (id:1381093)

莫美妮 Melanie Mo (id:1380393)

◎标 签 爱情 / 香港 / 青春 / 喜剧 / 2017 / 中国香港 / 成长 / 校园

◎简 介

初恋,甜蜜又苦涩。如果第一次恋爱遇到渣男怎么办?查子颀就遇到了。少女时代的她第一次恋爱就遭遇了男友张子豪的劈腿,两人从甜蜜到最后不欢而散。多年后,从清纯玉女蜕变成熟女御姐的查子颀成为一名情感导师,为害怕恋爱以及容易在爱情中受骗的女生讲授恋爱技巧,备受欢迎。而此时,套路满满却不再相信爱情的查子颀,被学生时代曾暗恋过的同学安俊源热切追求着,这位暖男让她重拾对爱情的渴望,正当她决定接受安俊源时,张子豪却再次出现,并表现出对子颀的余情未了,究竟谁才是真爱,查子颀最终又将作出怎样的抉择?

  1. ##### MediaInfo ######

  2. General

  3. Complete name : 初恋日记.T[email protected]BBQDDQ.COM.mp4

  4. Format : MPEG-4

  5. Format profile : Base Media

  6. Codec ID : isom (isom/iso2/mp41)

  7. File size : 23.9 GiB

  8. Duration : 1 h 54 min

  9. Overall bit rate : 29.9 Mb/s

  10. Writing application : OurTV Multimedia Platform


  11. Video

  12. ID : 1

  13. Format : HEVC

  14. Format/Info : High Efficiency Video Coding

  15. Format profile : [email protected]@High

  16. Codec ID : hev1

  17. Codec ID/Info : High Efficiency Video Coding

  18. Duration : 1 h 54 min

  19. Bit rate : 29.1 Mb/s

  20. Width : 3 840 pixels

  21. Height : 2 160 pixels

  22. Display aspect ratio : 16:9

  23. Frame rate mode : Constant

  24. Frame rate : 25.000 FPS

  25. Color space : YUV

  26. Chroma subsampling : 4:2:0

  27. Bit depth : 8 bits

  28. Bits/(Pixel*Frame) : 0.140

  29. Stream size : 23.3 GiB (97%)

  30. Writing library : PONTUS-series

  31. Color range : Limited

  32. Codec configuration box : hvcC


  33. Audio #1

  34. ID : 2

  35. Format : AC-3

  36. Format/Info : Audio Coding 3

  37. Commercial name : Dolby Digital

  38. Codec ID : ac-3

  39. Duration : 1 h 54 min

  40. Bit rate mode : Constant

  41. Bit rate : 384 kb/s

  42. Channel(s) : 2 channels

  43. Channel layout : L R

  44. Sampling rate : 48.0 kHz

  45. Frame rate : 31.250 FPS (1536 SPF)

  46. Compression mode : Lossy

  47. Stream size : 315 MiB (1%)

  48. Title : 国语DD2.0

  49. Language : Chinese

  50. Service kind : Complete Main

  51. Default : Yes

  52. Alternate group : 1


  53. Audio #2

  54. ID : 3

  55. Format : AC-3

  56. Format/Info : Audio Coding 3

  57. Commercial name : Dolby Digital

  58. Codec ID : ac-3

  59. Duration : 1 h 54 min

  60. Bit rate mode : Constant

  61. Bit rate : 384 kb/s

  62. Channel(s) : 2 channels

  63. Channel layout : L R

  64. Sampling rate : 48.0 kHz

  65. Frame rate : 31.250 FPS (1536 SPF)

  66. Compression mode : Lossy

  67. Stream size : 315 MiB (1%)

  68. Title : 粤语DD2.0

  69. Language : Chinese

  70. Service kind : Complete Main

  71. Default : No

  72. Alternate group : 1




复制代码



文件下载


除非特别注明,本文『初恋日记[国语配音/中文字幕].To.Love.Or.Not.To.Love.2017.2160p.WEB-DL.H265.DD2.0.2Audio-bt9527.cc 23.93GB』来源于互联网机器人自动抓取,非本站原创。 浮游电影网不对本文拥有版权,如有侵犯,请联系邮箱:fuyouu#yandex.com[#换成@]投诉。我们会在15个工作日内删除。 但烦请转载时请标明出处:“本文转载于『浮游电影网』,原文地址:https://www.fuyouu.com/18896.html

评论吧骚年!

发表你的见解   

昵称*

E-mail*(建议输入,以便收到博主回复的提示邮件)

验证码*

您可以使用eMule或eMule Mod(Windows)、aMule(Win、Linux、Mac)等软件下载eD2k链接。。
eMule收藏集(.emulecollection)文件是您选中的所有链接的列表文件。eMule可以直接下载它们。
按住SHIFT键选择可以选中多个选择框。
可用文件名和大小选择器来选择文件。
文件名选择器帮您根据文件名称或后缀来选择文件。不分大小写。
符号使用:
和:空格( )、+
不包含:-
或:|
转义:一对英文引号("");
匹配开头:^
匹配结尾:$
例如:
选中所有名称中包含有“eMule”或“0.49c”字眼,但不包含有“exe”字眼的:emule|0.49c -exe
选中所有名称的开头是“eMule”,结尾是“0.49c”的:^emule 0.49c$
选中所有名称中带有“eMule 0.49c”的(必须是“eMule 0.49c”,中间没有别的字符,不能是“eMule fake 0.49c”),需要转义:"emule 0.49c"
大小选择器帮您根据文件大小选择文件。