当前位置: 首页 >> 欧美电影 >> 仁心与冠冕[中文字幕].Kind.Hearts.and.Coronets.1949.1080p.BluRay.DD2.0.x265-10bit-bt9527 9.03GB >> 正文

仁心与冠冕[中文字幕].Kind.Hearts.and.Coronets.1949.1080p.BluRay.DD2.0.x265-10bit-bt9527 9.03GB

2021年11月19日 10:41:46     电影发布:来源于网络     电影分类:欧美电影     评论(0)    

61970f1f87a24.jpeg

◎译 名 仁心与冠冕 / 慈悲心肠 / 好心肠与王冠

◎片 名 Kind Hearts and Coronets

◎年 代 1949

◎产 地 英国

◎类 别 喜剧 / 犯罪

◎语 言 英语

◎上映日期 1949-06-23(英国)

◎IMDb链接 https://www.imdb.com/title/tt0041546/

◎豆瓣评分 8.4/10 (5737人评价)

◎豆瓣链接 https://movie.douban.com/subject/1295995/

◎片 长 106 分钟

◎导 演 罗伯特·哈默 Robert Hamer (id:1000987)

◎编 剧 约翰·戴顿 John Dighton (id:1038742)

罗伯特·哈默 Robert Hamer (id:1000987)

◎演 员 亚历克·吉尼斯 Alec Guinness (id:1000109)

瓦莱莉娅·霍布森 Valerie Hobson (id:1100390)

丹尼斯·普莱斯 Dennis Price (id:1012579)

亚瑟·罗维 Arthur Lowe (id:1050286)

休·格里夫斯 Hugh Griffith (id:1019173)

John Penrose John Penrose (id:1126228)

克莱夫·莫顿 Clive Morton (id:1132667)

Audrey Fildes Audrey Fildes (id:1087860)

琼·格林伍德 Joan Greenwood (id:1032452)

Ernest Irving Ernest Irving (id:1044524)

◎标 签 英国 / 喜剧 / 黑色幽默 / 犯罪 / 黑白 / 英国电影 / 1949 / 经典

◎简 介

路易斯(丹尼斯·普莱斯 Dennis Price 饰)的母亲出身高贵的阿斯特内家族,但因和一个意大利歌唱家私奔,至死都受到家族排斥。已经长大成人的路易斯深深牢记贵族亲戚们拒绝母亲葬在家庭墓地的嘴脸,又经历心爱的少女茜贝拉(简·格林伍德 Joan Greenwood 饰)因他贫穷拒绝他的求婚,于是着手展开他的复仇计划。他把有爵位继承权的男性亲属一个个用计谋杀掉,旨在自己可以得到公爵爵位,在杀人变得越来越得心应手后,连老弱妇孺都不肯放过,反正他总能制造各种巧合,从来没有人怀疑到他身上。但在复仇计划执行的同时,他也陷入感情困扰——嫁人后的茜贝拉和他藕断丝连,又有个家族内美丽的遗孀艾迪丝(Valerie Hobson 饰)爱上了他,愿意和他订婚,在路易斯得意洋洋继承爵位和举办婚礼之际,他的罪行似乎也要败露……

◎获奖情况 (共2项)

第10届威尼斯电影节 (1949)

主竞赛单元 金狮奖 (提名)

└──罗伯特·哈默 (id:1000987)

国际奖 最佳艺术指导

└──威廉·凯尔纳 (id:1026081)

  1. ##### MediaInfo ######

  2. General

  3. Unique ID : 11441709944522887919681549491775660419 (0x89B97DAA03482BED8A1A1FA287EE183)

  4. Complete name : Ki[email protected]BBQDDQ.COM.mkv

  5. Format : Matroska

  6. Format version : Version 4

  7. File size : 9.03 GiB

  8. Duration : 1 h 46 min

  9. Overall bit rate : 12.2 Mb/s

  10. Movie name : Kind Hearts and Coronets 1949 1080p BluRay DD2.0 [email protected]

  11. Encoded date : UTC 2021-11-17 05:42:14

  12. Writing application : mkvmerge v38.0.0 ('The Silent Type') 64-bit

  13. Writing library : libebml v1.3.9 + libmatroska v1.5.2


  14. Video

  15. ID : 1

  16. Format : HEVC

  17. Format/Info : High Efficiency Video Coding

  18. Format profile : Main [email protected]@High

  19. Codec ID : V_MPEGH/ISO/HEVC

  20. Duration : 1 h 46 min

  21. Bit rate : 11.5 Mb/s

  22. Width : 1 480 pixels

  23. Height : 1 080 pixels

  24. Display aspect ratio : 1.370

  25. Frame rate mode : Constant

  26. Frame rate : 24.000 FPS

  27. Color space : YUV

  28. Chroma subsampling : 4:2:0

  29. Bit depth : 10 bits

  30. Bits/(Pixel*Frame) : 0.300

  31. Stream size : 8.52 GiB (94%)

  32. Title : @HDSky

  33. Writing library : x265 - H.265/HEVC codec

  34. Default : Yes

  35. Forced : No


  36. Audio

  37. ID : 2

  38. Format : AC-3

  39. Format/Info : Audio Coding 3

  40. Commercial name : Dolby Digital

  41. Codec ID : A_AC3

  42. Duration : 1 h 46 min

  43. Bit rate mode : Constant

  44. Bit rate : 640 kb/s

  45. Channel(s) : 2 channels

  46. Channel layout : L R

  47. Sampling rate : 48.0 kHz

  48. Frame rate : 31.250 FPS (1536 SPF)

  49. Compression mode : Lossy

  50. Stream size : 486 MiB (5%)

  51. Title : English

  52. Language : English

  53. Service kind : Complete Main

  54. Default : Yes

  55. Forced : No


  56. Text #1

  57. ID : 3

  58. Format : PGS

  59. Muxing mode : zlib

  60. Codec ID : S_HDMV/PGS

  61. Codec ID/Info : Picture based subtitle format used on BDs/HD-DVDs

  62. Duration : 1 h 42 min

  63. Bit rate : 46.9 kb/s

  64. Count of elements : 3116

  65. Stream size : 34.5 MiB (0%)

  66. Title : CHS

  67. Language : Chinese

  68. Default : Yes

  69. Forced : No


  70. Text #2

  71. ID : 4

  72. Format : PGS

  73. Muxing mode : zlib

  74. Codec ID : S_HDMV/PGS

  75. Codec ID/Info : Picture based subtitle format used on BDs/HD-DVDs

  76. Duration : 1 h 42 min

  77. Bit rate : 48.5 kb/s

  78. Count of elements : 3116

  79. Stream size : 35.7 MiB (0%)

  80. Title : CHT

  81. Language : Chinese

  82. Default : No

  83. Forced : No


  84. Menu

  85. 00:00:00.000 : en:Chapter 01

  86. 00:06:49.167 : en:Chapter 02

  87. 00:10:54.125 : en:Chapter 03

  88. 00:20:18.208 : en:Chapter 04

  89. 00:30:54.792 : en:Chapter 05

  90. 00:41:02.792 : en:Chapter 06

  91. 00:49:59.417 : en:Chapter 07

  92. 01:00:08.250 : en:Chapter 08

  93. 01:07:59.792 : en:Chapter 09

  94. 01:15:15.417 : en:Chapter 10

  95. 01:29:08.750 : en:Chapter 11

  96. 01:37:08.042 : en:Chapter 12




复制代码





文件下载


除非特别注明,本文『仁心与冠冕[中文字幕].Kind.Hearts.and.Coronets.1949.1080p.BluRay.DD2.0.x265-10bit-bt9527 9.03GB』来源于互联网机器人自动抓取,非本站原创。 浮游电影网不对本文拥有版权,如有侵犯,请联系邮箱:fuyouu#yandex.com[#换成@]投诉。我们会在15个工作日内删除。 但烦请转载时请标明出处:“本文转载于『浮游电影网』,原文地址:https://www.fuyouu.com/18829.html

评论吧骚年!

发表你的见解   

昵称*

E-mail*(建议输入,以便收到博主回复的提示邮件)

验证码*

您可以使用eMule或eMule Mod(Windows)、aMule(Win、Linux、Mac)等软件下载eD2k链接。。
eMule收藏集(.emulecollection)文件是您选中的所有链接的列表文件。eMule可以直接下载它们。
按住SHIFT键选择可以选中多个选择框。
可用文件名和大小选择器来选择文件。
文件名选择器帮您根据文件名称或后缀来选择文件。不分大小写。
符号使用:
和:空格( )、+
不包含:-
或:|
转义:一对英文引号("");
匹配开头:^
匹配结尾:$
例如:
选中所有名称中包含有“eMule”或“0.49c”字眼,但不包含有“exe”字眼的:emule|0.49c -exe
选中所有名称的开头是“eMule”,结尾是“0.49c”的:^emule 0.49c$
选中所有名称中带有“eMule 0.49c”的(必须是“eMule 0.49c”,中间没有别的字符,不能是“eMule fake 0.49c”),需要转义:"emule 0.49c"
大小选择器帮您根据文件大小选择文件。