当前位置: 首页 >> 日韩电影 >> 溺水小刀[中文字幕].Drowning.Love.2016.1080p.WEB-DL.H264.AAC-bt9527.cc 3.91GB >> 正文

溺水小刀[中文字幕].Drowning.Love.2016.1080p.WEB-DL.H264.AAC-bt9527.cc 3.91GB

2021年11月18日 08:48:27     电影发布:来源于网络     电影分类:日韩电影     评论(0)    

溺水小刀[中文字幕].Drowning.Love.2016.1080p.WEB DL.H264.AAC bt9527.cc 3.91GB 爱情片 剧情片 日韩电影  第1张

◎译 名 溺水小刀/Drowning Love

◎片 名 溺れるナイフ

◎年 代 2016

◎产 地 日本

◎类 别 剧情 / 爱情

◎语 言 日语

◎上映日期 2016-11-05(日本)

◎豆瓣评分 7.7/10 from 111171 users

◎豆瓣链接 https://movie.douban.com/subject/26611076/

◎片 长 111分钟

◎导 演 山户结希 Y?ki Yamato

◎编 剧 山户结希 Y?ki Yamato / 井土纪州 Kish? Izuchi / 乔治朝仓 George Asakura

◎主 演 小松菜奈 Nana Komatsu

菅田将晖 Masaki Suda

重冈大毅 Shigeoka Daiki

上白石萌音 Mone Kamishiraishi

志磨辽平 Ry?hei Shima

齐藤阳一郎 Yoichiro Saito

岭豪一 G?ichi Mine

伊藤步梦 Ayumu It?

堀内正美 Masami Horiuchi

市川实和子 Miwako Ichikawa

五十岚信次郎 Mickey Curtis

◎标 签 日本 | 青春 | 爱情 | 文艺 | 少女 | 纯爱 | 成长 | SudaMasaki菅田将暉

◎简 介

小有名气的15岁平面模特满月夏芽(小松菜奈 饰)不得不跟随父母回到老家,帮助年迈的爷爷打理旅店。美丽的女孩很快结识了新朋友,同时也认识了那个周身闪着白色光芒的长谷川航一朗(菅田将晖 饰)。阿航是当地神主一族的孩子,但是他无拘无束,经常干一些出格的事。他时不时戏耍夏芽,而夏芽则对这个坏男孩颇有好感。在阿航的鼓励下,女孩重拾信心,继续自己的艺能事业。在某个祭典之夜,一桩意外降临在少男少女的头上。失落的夏芽和阿航分手,阿航则堕落成街头混混。在此期间,两人的同学大友胜利(重冈大毅 饰)鼓舞着夏芽,两人越走越近……

本片根据ジョージ朝倉发表在《别册Friend》(讲谈社)上的同名漫画改编

  1. ##### MediaInfo ######

  2. General

  3. Unique ID : 136755900109846230289240128562545765145 (0x66E23A727ABF44FB47E5B9FD989B2B19)

  4. Complete name : [email protected]

  5. Format : Matroska

  6. Format version : Version 4

  7. File size : 3.91 GiB

  8. Duration : 1 h 51 min

  9. Overall bit rate : 4 996 kb/s

  10. Encoded date : UTC 2021-11-16 12:57:24

  11. Writing application : mkvmerge v56.1.0 ('My Friend') 64-bit

  12. Writing library : libebml v1.4.2 + libmatroska v1.6.4


  13. Video

  14. ID : 1

  15. Format : AVC

  16. Format/Info : Advanced Video Codec

  17. Format profile : [email protected]

  18. Format settings : 3 Ref Frames

  19. Format settings, CABAC : No

  20. Format settings, Reference frames : 3 frames

  21. Format settings, GOP : M=1, N=30

  22. Codec ID : V_MPEG4/ISO/AVC

  23. Duration : 1 h 51 min

  24. Bit rate : 4 868 kb/s

  25. Width : 1 920 pixels

  26. Height : 1 080 pixels

  27. Display aspect ratio : 16:9

  28. Frame rate mode : Constant

  29. Frame rate : 30.000 FPS

  30. Color space : YUV

  31. Chroma subsampling : 4:2:0

  32. Bit depth : 8 bits

  33. Scan type : Progressive

  34. Bits/(Pixel*Frame) : 0.078

  35. Stream size : 3.80 GiB (97%)

  36. Language : English

  37. Default : Yes

  38. Forced : No


  39. Audio

  40. ID : 2

  41. Format : AAC LC

  42. Format/Info : Advanced Audio Codec Low Complexity

  43. Codec ID : A_AAC-2

  44. Duration : 1 h 51 min

  45. Bit rate : 128 kb/s

  46. Channel(s) : 2 channels

  47. Channel layout : L R

  48. Sampling rate : 44.1 kHz

  49. Frame rate : 43.066 FPS (1024 SPF)

  50. Compression mode : Lossy

  51. Stream size : 102 MiB (3%)

  52. Title : Japanese

  53. Language : Japanese

  54. Default : Yes

  55. Forced : No


  56. Text #1

  57. ID : 3

  58. Format : UTF-8

  59. Codec ID : S_TEXT/UTF8

  60. Codec ID/Info : UTF-8 Plain Text

  61. Duration : 1 h 49 min

  62. Bit rate : 29 b/s

  63. Count of elements : 1041

  64. Stream size : 23.2 KiB (0%)

  65. Title : Chinese Simplified

  66. Language : Chinese

  67. Default : Yes

  68. Forced : No


  69. Text #2

  70. ID : 4

  71. Format : UTF-8

  72. Codec ID : S_TEXT/UTF8

  73. Codec ID/Info : UTF-8 Plain Text

  74. Duration : 1 h 49 min

  75. Bit rate : 29 b/s

  76. Count of elements : 1041

  77. Stream size : 23.2 KiB (0%)

  78. Title : Chinese Traditional

  79. Language : Chinese

  80. Default : No

  81. Forced : No




复制代码




文件下载


除非特别注明,本文『溺水小刀[中文字幕].Drowning.Love.2016.1080p.WEB-DL.H264.AAC-bt9527.cc 3.91GB』来源于互联网机器人自动抓取,非本站原创。 浮游电影网不对本文拥有版权,如有侵犯,请联系邮箱:fuyouu#yandex.com[#换成@]投诉。我们会在15个工作日内删除。 但烦请转载时请标明出处:“本文转载于『浮游电影网』,原文地址:https://www.fuyouu.com/18670.html

评论吧骚年!

发表你的见解   

昵称*

E-mail*(建议输入,以便收到博主回复的提示邮件)

验证码*

您可以使用eMule或eMule Mod(Windows)、aMule(Win、Linux、Mac)等软件下载eD2k链接。。
eMule收藏集(.emulecollection)文件是您选中的所有链接的列表文件。eMule可以直接下载它们。
按住SHIFT键选择可以选中多个选择框。
可用文件名和大小选择器来选择文件。
文件名选择器帮您根据文件名称或后缀来选择文件。不分大小写。
符号使用:
和:空格( )、+
不包含:-
或:|
转义:一对英文引号("");
匹配开头:^
匹配结尾:$
例如:
选中所有名称中包含有“eMule”或“0.49c”字眼,但不包含有“exe”字眼的:emule|0.49c -exe
选中所有名称的开头是“eMule”,结尾是“0.49c”的:^emule 0.49c$
选中所有名称中带有“eMule 0.49c”的(必须是“eMule 0.49c”,中间没有别的字符,不能是“eMule fake 0.49c”),需要转义:"emule 0.49c"
大小选择器帮您根据文件大小选择文件。