当前位置: 首页 >> 日韩电影 >> 高踢少女[中文字幕].High.Kick.Girl.2009.BluRay.1080p.x265.10bit.AAC5.1.HLW-bt9527.cc 2.45GB >> 正文

高踢少女[中文字幕].High.Kick.Girl.2009.BluRay.1080p.x265.10bit.AAC5.1.HLW-bt9527.cc 2.45GB

2021年11月18日 08:47:14     电影发布:来源于网络     电影分类:日韩电影     评论(0)    

高踢少女[中文字幕].High.Kick.Girl.2009.BluRay.1080p.x265.10bit.AAC5.1.HLW bt9527.cc 2.45GB 动作片 日韩电影  第1张

◎译 名 高踢少女 / High-Kick Girl!

◎片 名 ハイキック?ガール!

◎年 代 2009

◎产 地 日本

◎类 别 动作

◎语 言 日语

◎上映日期 2009-05-30(日本)

◎IMDb链接 https://www.imdb.com/title/tt1406157/

◎豆瓣评分 4.8/10 (284人评价)

◎豆瓣链接 https://movie.douban.com/subject/3643289/

◎片 长 81 分钟

◎演 员 武田梨奈 Rina Takeda (id:1018490)

中达也 Tatsuya Naka (id:1018694)

井村空美 Kumi Imura (id:1038319)

Misako Nagashima (id:1247682)

秋元才加 Sayaka Akimoto (id:1314233)

山根和马 Kazuma Yamane (id:1329411)

高桥龙辉 Ry?ki Takahashi (id:1315060)

须藤雅宏 Masahiro Sud? (id:1401147)

◎标 签 动作 / 日本 / 日本电影 / 空手道 / 武田梨奈 / 2009 / 电影 / 高踢少女

◎简 介

女高中生土屋圭是个空手道高手,最擅长用高踢击倒对手。然而道场的师傅松村却不愿授予她黑带。松村告诉圭:“空手道的真谛在于型,你只想着打倒对手说明还没达到境界。”

一群格斗高手和武术强者组成了“破坏者”集团,他们专门用暴力为委托人铲除眼中钉。叛逆心大作的小圭竟加入了这个集团。通过入团考试后,圭得知了破坏者集团的真相。师傅松村的道场面临危机,一场大战迫在眉睫……

  1. ##### MediaInfo ######

  2. General

  3. Unique ID : 267684890902010930062517356963091512521 (0xC9623C159D7BC9358FFCAA6C3C9CFCC9)

  4. Complete name : [email protected]DDQ.COM.mkv

  5. Format : Matroska

  6. Format version : Version 4

  7. File size : 2.45 GiB

  8. Duration : 1 h 21 min

  9. Overall bit rate : 4 290 kb/s

  10. Movie name : High-Kick Girl! 2009 BluRay 1080p - FRDS

  11. Encoded date : UTC 2021-11-16 12:54:55

  12. Writing application : mkvmerge v61.0.0 ('So') 64-bit

  13. Writing library : libebml v1.4.2 + libmatroska v1.6.4


  14. Video

  15. ID : 1

  16. Format : HEVC

  17. Format/Info : High Efficiency Video Coding

  18. Format profile : Main [email protected]@High

  19. Codec ID : V_MPEGH/ISO/HEVC

  20. Duration : 1 h 21 min

  21. Bit rate : 3 809 kb/s

  22. Width : 1 920 pixels

  23. Height : 804 pixels

  24. Display aspect ratio : 2.40:1

  25. Frame rate mode : Constant

  26. Frame rate : 23.976 (24000/1001/53354) FPS

  27. Color space : YUV

  28. Chroma subsampling : 4:2:0

  29. Bit depth : 10 bits

  30. Bits/(Pixel*Frame) : 0.103

  31. Stream size : 2.17 GiB (89%)

  32. Writing library : x265 3.5+19-8003e4382:[Windows][MSVC 1929][64 bit] 10bit

  33. Encoding settings : cpuid=533541111039 / frame-threads=3 / numa-pools=8 / wpp / pmode / no-pme / no-psnr / no-ssim / log-level=2 / input-csp=1 / input-res=1920x804 / interlace=0 / total-frames=117384 / level-idc=0 / high-tier=1 / uhd-bd=0 / ref=6 / no-allow-non-conformance / no-repeat-headers / annexb / no-aud / no-eob / no-eos / no-hrd / info / hash=0 / no-temporal-layers / no-open-gop / min-keyint=1 / keyint=250 / gop-lookahead=0 / bframes=8 / b-adapt=2 / b-pyramid / bframe-bias=0 / rc-lookahead=100 / lookahead-slices=0 / NTMzNTQ=uuDQuD2mJt9fsCf / scenecut=40 / no-hist-scenecut / radl=0 / no-splice / no-intra-refresh / ctu=32 / min-cu-size=8 / no-rect / no-amp / max-tu-size=32 / tu-inter-depth=4 / tu-intra-depth=4 / limit-tu=0 / rdoq-level=2 / dynamic-rd=0.00 / no-ssim-rd / signhide / tskip / nr-intra=0 / nr-inter=0 / no-constrained-intra / strong-intra-smoothing / max-merge=5 / limit-refs=0 / no-limit-modes / me=3 / subme=7 / merange=57 / temporal-mvp / no-frame-dup / no-hme / weightp / weightb / no-analyze-src-pics / deblock=-3:-3 / no-sao / no-sao-non-deblock / rd=4 / selective-sao=0 / no-early-skip / no-rskip / no-fast-intra / no-tskip-fast / no-cu-lossless / b-intra / no-splitrd-skip / rdpenalty=0 / psy-rd=1.50 / psy-rdoq=1.00 / no-rd-refine / no-lossless / cbqpoffs=-2 / crqpoffs=-2 / rc=crf / crf=21.0 / qcomp=0.65 / qpstep=4 / stats-write=0 / stats-read=0 / vbv-maxrate=160000 / vbv-bufsize=160000 / vbv-init=0.9 / min-vbv-fullness=50.0 / max-vbv-fullness=80.0 / crf-max=0.0 / crf-min=0.0 / ipratio=1.30 / pbratio=1.20 / aq-mode=1 / aq-strength=1.00 / no-cutree / zone-count=0 / no-strict-cbr / qg-size=8 / no-rc-grain / qpmax=69 / qpmin=0 / no-const-vbv / sar=0 / overscan=0 / videoformat=5 / range=0 / colorprim=1 / transfer=1 / colormatrix=1 / chromaloc=0 / display-window=0 / cll=0,0 / min-luma=0 / max-luma=1023 / log2-max-poc-lsb=8 / vui-timing-info / vui-hrd-info / slices=1 / no-opt-qp-pps / no-opt-ref-list-length-pps / no-multi-pass-opt-rps / scenecut-bias=0.05 / hist-threshold=0.03 / no-opt-cu-delta-qp / no-aq-motion / no-hdr10 / no-hdr10-opt / no-dhdr10-opt / no-idr-recovery-sei / analysis-reuse-level=0 / analysis-save-reuse-level=0 / analysis-load-reuse-level=0 / scale-factor=0 / refine-intra=0 / refine-inter=0 / refine-mv=1 / refine-ctu-distortion=0 / no-limit-sao / ctu-info=0 / no-lowpass-dct / refine-analysis-type=0 / copy-pic=1 / max-ausize-factor=1.0 / no-dynamic-refine / no-single-sei / no-hevc-aq / no-svt / no-field / qp-adaptation-range=1.00 / scenecut-aware-qp=0conformance-window-offsets / right=0 / bottom=0 / NTMzNTQ= / decoder-max-rate=0 / no-vbv-live-multi-pass

  34. Default : Yes

  35. Forced : No

  36. Color range : Limited

  37. Color primaries : BT.709

  38. Transfer characteristics : BT.709

  39. Matrix coefficients : BT.709


  40. Audio

  41. ID : 2

  42. Format : AAC LC

  43. Format/Info : Advanced Audio Codec Low Complexity

  44. Codec ID : A_AAC-2

  45. Duration : 1 h 21 min

  46. Bit rate : 471 kb/s

  47. Channel(s) : 6 channels

  48. Channel layout : C L R Ls Rs LFE

  49. Sampling rate : 48.0 kHz

  50. Frame rate : 46.875 FPS (1024 SPF)

  51. Compression mode : Lossy

  52. Stream size : 274 MiB (11%)

  53. Language : Japanese

  54. Default : Yes

  55. Forced : No


  56. Text #1

  57. ID : 3

  58. Format : PGS

  59. Muxing mode : zlib

  60. Codec ID : S_HDMV/PGS

  61. Codec ID/Info : Picture based subtitle format used on BDs/HD-DVDs

  62. Duration : 1 h 9 min

  63. Bit rate : 10.3 kb/s

  64. Count of elements : 722

  65. Stream size : 5.14 MiB (0%)

  66. Title : English

  67. Language : English

  68. Default : No

  69. Forced : No


  70. Text #2

  71. ID : 4

  72. Format : UTF-8

  73. Codec ID : S_TEXT/UTF8

  74. Codec ID/Info : UTF-8 Plain Text

  75. Duration : 1 h 11 min

  76. Bit rate : 18 b/s

  77. Count of elements : 298

  78. Stream size : 9.59 KiB (0%)

  79. Language : Chinese

  80. Default : Yes

  81. Forced : No


  82. Text #3

  83. ID : 5

  84. Format : PGS

  85. Muxing mode : zlib

  86. Codec ID : S_HDMV/PGS

  87. Codec ID/Info : Picture based subtitle format used on BDs/HD-DVDs

  88. Duration : 1 h 9 min

  89. Bit rate : 7 095 b/s

  90. Count of elements : 553

  91. Stream size : 3.54 MiB (0%)

  92. Title : Dutch

  93. Language : Dutch

  94. Default : No

  95. Forced : No


  96. Text #4

  97. ID : 6

  98. Format : PGS

  99. Muxing mode : zlib

  100. Codec ID : S_HDMV/PGS

  101. Codec ID/Info : Picture based subtitle format used on BDs/HD-DVDs

  102. Duration : 1 h 9 min

  103. Bit rate : 8 412 b/s

  104. Count of elements : 622

  105. Stream size : 4.20 MiB (0%)

  106. Title : German

  107. Language : German

  108. Default : No

  109. Forced : No


  110. Menu

  111. 00:00:00.000 : Chapter 1

  112. 00:06:43.612 : Chapter 2

  113. 00:13:17.046 : Chapter 3

  114. 00:19:27.375 : Chapter 4

  115. 00:29:14.586 : Chapter 5

  116. 00:35:52.067 : Chapter 6

  117. 00:45:16.130 : Chapter 7

  118. 00:51:21.203 : Chapter 8

  119. 00:57:07.299 : Chapter 9

  120. 01:05:07.737 : Chapter 10

  121. 01:14:02.980 : Chapter 11

  122. 01:16:07.188 : Chapter 12




复制代码



文件下载


除非特别注明,本文『高踢少女[中文字幕].High.Kick.Girl.2009.BluRay.1080p.x265.10bit.AAC5.1.HLW-bt9527.cc 2.45GB』来源于互联网机器人自动抓取,非本站原创。 浮游电影网不对本文拥有版权,如有侵犯,请联系邮箱:fuyouu#yandex.com[#换成@]投诉。我们会在15个工作日内删除。 但烦请转载时请标明出处:“本文转载于『浮游电影网』,原文地址:https://www.fuyouu.com/18669.html

评论吧骚年!

发表你的见解   

昵称*

E-mail*(建议输入,以便收到博主回复的提示邮件)

验证码*

您可以使用eMule或eMule Mod(Windows)、aMule(Win、Linux、Mac)等软件下载eD2k链接。。
eMule收藏集(.emulecollection)文件是您选中的所有链接的列表文件。eMule可以直接下载它们。
按住SHIFT键选择可以选中多个选择框。
可用文件名和大小选择器来选择文件。
文件名选择器帮您根据文件名称或后缀来选择文件。不分大小写。
符号使用:
和:空格( )、+
不包含:-
或:|
转义:一对英文引号("");
匹配开头:^
匹配结尾:$
例如:
选中所有名称中包含有“eMule”或“0.49c”字眼,但不包含有“exe”字眼的:emule|0.49c -exe
选中所有名称的开头是“eMule”,结尾是“0.49c”的:^emule 0.49c$
选中所有名称中带有“eMule 0.49c”的(必须是“eMule 0.49c”,中间没有别的字符,不能是“eMule fake 0.49c”),需要转义:"emule 0.49c"
大小选择器帮您根据文件大小选择文件。