当前位置: 首页 >> 港台电影 >> 盂兰神功[国粤语音轨/中文字幕].Hungry.Ghost.Ritual.2014.BluRay.1080p.x265.10bit.AAC7.1.MNHD-bt9527.cc 2.71GB >> 正文

盂兰神功[国粤语音轨/中文字幕].Hungry.Ghost.Ritual.2014.BluRay.1080p.x265.10bit.AAC7.1.MNHD-bt9527.cc 2.71GB

2021年11月18日 08:43:08     电影发布:来源于网络     电影分类:港台电影     评论(0)    

盂兰神功[国粤语音轨/中文字幕].Hungry.Ghost.Ritual.2014.BluRay.1080p.x265.10bit.AAC7.1.MNHD bt9527.cc 2.71GB 恐怖片 惊悚片 港台电影  第1张

◎译 名 盂兰神功 / Hungry Ghost Ritual

◎片 名 盂蘭神功

◎年 代 2014

◎产 地 中国香港 / 马来西亚

◎类 别 惊悚 / 恐怖

◎语 言 粤语

◎上映日期 2014-07-10(中国香港)

◎IMDb链接 https://www.imdb.com/title/tt3830194/

◎豆瓣评分 5.6/10 (14836人评价)

◎豆瓣链接 https://movie.douban.com/subject/24522915/

◎片 长 82分钟

◎导 演 张家辉 Nick Cheung (id:1037273)

◎编 剧 张家辉 Nick Cheung (id:1037273)

郑建国 Adrian Teh (id:1328374)

翁秀兰 Shirley Yung Sau-Lan (id:1355762)

◎演 员 张家辉 Nick Cheung (id:1037273)

刘心悠 Annie Liu (id:1001301)

林威 Wai Lam (id:1289306)

吴家丽 Carrie Ng (id:1274241)

李元玲 Cathryn Lee (id:1343083)

张惠虹 Karena Teo (id:1379966)

翁秀兰 Shirley Yung Sau-Lan (id:1355762)

Stephanie Caleb Stephanie Caleb (id:1354365)

◎标 签 恐怖 / 香港 / 惊悚 / 2014 / 鬼片 / 灵异 / 悬疑 / 马来西亚

◎简 介

农历七月,盂兰将近。街头巷尾阴风惨淡,鬼影幢幢,自是一番萧索凄凉景象。晦暗的小巷,走来了在大陆经商失败的宗华 (张家辉 饰),他被朋友骗的倾家荡产,更遭遇了人生苦痛的变故,所幸年事已高的父亲接纳了他。他的父亲啸天(林威 饰)是一家神功戏的班主,此时正组织团员们抓紧彩排准备为鬼神上演一年一度的大戏。谁知在开戏前啸天突然病倒,而没有任何经验的宗华临危受命成为代班主。他手忙脚乱,难以服众,多亏美丽花旦小燕 (刘心悠 饰)出手相助,二人似乎更借此生出好感。但是越临近演出的日子,诡异恐怖的事件便越多。叛逆的妹妹突然转性、小燕时冷时热、一闪而过的毁容女子、自己跳楼的身影。

冤有头,债有主,所做何因受何果,纵逃到天涯海角奈若何……

  1. ##### MediaInfo ######

  2. General

  3. Unique ID : 231246436719648541666115135540611710864 (0xADF87196658FD51457A6B0431976FF90)

  4. Complete name : Hun[email protected]BBQDDQ.COM.mkv

  5. Format : Matroska

  6. Format version : Version 4

  7. File size : 2.71 GiB

  8. Duration : 1 h 21 min

  9. Overall bit rate : 4 782 kb/s

  10. Movie name : Hungry Ghost Ritual 2014 BluRay 1080p - FRDS

  11. Encoded date : UTC 2021-11-17 11:56:21

  12. Writing application : mkvmerge v61.0.0 ('So') 64-bit

  13. Writing library : libebml v1.4.2 + libmatroska v1.6.4


  14. Video

  15. ID : 1

  16. Format : HEVC

  17. Format/Info : High Efficiency Video Coding

  18. Format profile : Main [email protected]@Main

  19. Codec ID : V_MPEGH/ISO/HEVC

  20. Duration : 1 h 21 min

  21. Bit rate : 3 530 kb/s

  22. Width : 1 916 pixels

  23. Height : 858 pixels

  24. Display aspect ratio : 2.25:1

  25. Frame rate mode : Constant

  26. Frame rate : 24.000 FPS

  27. Color space : YUV

  28. Chroma subsampling : 4:2:0

  29. Bit depth : 10 bits

  30. Bits/(Pixel*Frame) : 0.089

  31. Stream size : 2.00 GiB (74%)

  32. Writing library : x265 2.8+1-478bfe2b7673:[Windows][GCC 7.3.0][64 bit] 10bit

  33. Encoding settings : cpuid=533541111039 / frame-threads=4 / numa-pools=16 / wpp / no-pmode / no-pme / no-psnr / no-ssim / log-level=2 / csv / csv-log-level=0 / input-csp=1 / input-res=1916x858 / interlace=0 / total-frames=116948 / level-idc=0 / high-tier=1 / uhd-bd=0 / ref=5 / no-allow-non-conformance / no-repeat-headers / annexb / no-aud / no-hrd / info / hash=0 / no-temporal-layers / no-open-gop / min-keyint=1 / keyint=360 / gop-lookahead=0 / bframes=9 / b-adapt=2 / b-pyramid / bframe-bias=0 / rc-lookahead=60 / lookahead-slices=4 / NTMzNTQ=uuDQuD2mJt9fsCf / scenecut=40 / radl=0 / no-intra-refresh / ctu=32 / min-cu-size=8 / rect / no-amp / max-tu-size=16 / tu-inter-depth=2 / tu-intra-depth=2 / limit-tu=4 / rdoq-level=1 / dynamic-rd=0.00 / ssim-rd / signhide / no-tskip / nr-intra=0 / nr-inter=0 / no-constrained-intra / no-strong-intra-smoothing / max-merge=3 / limit-refs=2 / limit-modes / me=3 / subme=5 / merange=25 / temporal-mvp / weightp / weightb / no-analyze-src-pics / deblock=-1:-1 / no-sao / no-sao-non-deblock / rd=4 / no-early-skip / rskip / no-fast-intra / no-tskip-fast / no-cu-lossless / b-intra / no-splitrd-skip / rdpenalty=1 / psy-rd=0.00 / psy-rdoq=5.00 / no-rd-refine / no-lossless / cbqpoffs=-2 / crqpoffs=-2 / rc=crf / crf=16.0 / qcomp=0.70 / qpstep=4 / stats-write=0 / stats-read=0 / ipratio=1.40 / pbratio=1.30 / aq-mode=1 / aq-strength=0.80 / cutree / zone-count=0 / no-strict-cbr / qg-size=16 / no-rc-grain / qpmax=69 / qpmin=0 / no-const-vbv / sar=0 / overscan=0 / videoformat=5 / range=0 / colorprim=1 / transfer=2 / colormatrix=2 / chromaloc=0 / display-window=0 / max-cll=0,0 / min-luma=0 / max-luma=1023 / log2-max-poc-lsb=8 / vui-timing-info / vui-hrd-info / slices=1 / no-opt-qp-pps / no-opt-ref-list-length-pps / no-multi-pass-opt-rps / scenecut-bias=0.05 / no-opt-cu-delta-qp / no-aq-motion / no-hdr / no-hdr-opt / no-dhdr10-opt / no-idr-recovery-sei / analysis-reuse-level=5 / scale-factor=0 / refine-intra=0 / refine-inter=0 / refine-mv=0 / no-limit-sao / ctu-info=0 / no-lowpass-dct / refine-mv-type=0 / copy-pic=1 / max-ausize-factor=1.0 / no-dynamic-refine / no-single-sei

  34. Language : Chinese

  35. Default : Yes

  36. Forced : No

  37. Color range : Limited

  38. Color primaries : BT.709


  39. Audio #1

  40. ID : 2

  41. Format : AAC LC

  42. Format/Info : Advanced Audio Codec Low Complexity

  43. Codec ID : A_AAC-2

  44. Duration : 1 h 21 min

  45. Bit rate : 610 kb/s

  46. Channel(s) : 8 channels

  47. Channel layout : C L R Ls Rs Lb Rb LFE

  48. Sampling rate : 48.0 kHz

  49. Frame rate : 46.875 FPS (1024 SPF)

  50. Compression mode : Lossy

  51. Stream size : 354 MiB (13%)

  52. Title : Cantonese

  53. Language : Chinese

  54. Default : Yes

  55. Forced : No


  56. Audio #2

  57. ID : 3

  58. Format : AAC LC

  59. Format/Info : Advanced Audio Codec Low Complexity

  60. Codec ID : A_AAC-2

  61. Duration : 1 h 21 min

  62. Bit rate : 623 kb/s

  63. Channel(s) : 8 channels

  64. Channel layout : C L R Ls Rs Lb Rb LFE

  65. Sampling rate : 48.0 kHz

  66. Frame rate : 46.875 FPS (1024 SPF)

  67. Compression mode : Lossy

  68. Stream size : 362 MiB (13%)

  69. Title : Mandarin

  70. Language : Chinese

  71. Default : Yes

  72. Forced : No


  73. Text #1

  74. ID : 4

  75. Format : UTF-8

  76. Codec ID : S_TEXT/UTF8

  77. Codec ID/Info : UTF-8 Plain Text

  78. Duration : 1 h 16 min

  79. Bit rate : 22 b/s

  80. Count of elements : 563

  81. Stream size : 12.9 KiB (0%)

  82. Title : CHS

  83. Language : Chinese

  84. Default : Yes

  85. Forced : No


  86. Text #2

  87. ID : 5

  88. Format : PGS

  89. Muxing mode : zlib

  90. Codec ID : S_HDMV/PGS

  91. Codec ID/Info : Picture based subtitle format used on BDs/HD-DVDs

  92. Duration : 1 h 15 min

  93. Bit rate : 16.3 kb/s

  94. Count of elements : 1130

  95. Stream size : 8.78 MiB (0%)

  96. Title : CHT

  97. Language : Chinese

  98. Default : Yes

  99. Forced : No


  100. Text #3

  101. ID : 6

  102. Format : PGS

  103. Muxing mode : zlib

  104. Codec ID : S_HDMV/PGS

  105. Codec ID/Info : Picture based subtitle format used on BDs/HD-DVDs

  106. Duration : 1 h 15 min

  107. Bit rate : 19.7 kb/s

  108. Count of elements : 1130

  109. Stream size : 10.6 MiB (0%)

  110. Language : English

  111. Default : No

  112. Forced : No


  113. Menu

  114. 00:00:00.000 : Chapter 01

  115. 00:04:17.166 : Chapter 02

  116. 00:09:22.291 : Chapter 03

  117. 00:16:41.083 : Chapter 04

  118. 00:20:02.291 : Chapter 05

  119. 00:26:24.125 : Chapter 06

  120. 00:31:34.083 : Chapter 07

  121. 00:36:29.416 : Chapter 08

  122. 00:43:47.208 : Chapter 09

  123. 00:47:15.000 : Chapter 10

  124. 00:52:30.833 : Chapter 11

  125. 00:57:19.666 : Chapter 12

  126. 01:01:05.500 : Chapter 13

  127. 01:05:26.750 : Chapter 14

  128. 01:08:00.333 : Chapter 15

  129. 01:12:41.500 : Chapter 16

  130. 01:15:58.583 : Chapter 17

  131. 01:19:11.666 : Chapter 18




复制代码



文件下载


除非特别注明,本文『盂兰神功[国粤语音轨/中文字幕].Hungry.Ghost.Ritual.2014.BluRay.1080p.x265.10bit.AAC7.1.MNHD-bt9527.cc 2.71GB』来源于互联网机器人自动抓取,非本站原创。 浮游电影网不对本文拥有版权,如有侵犯,请联系邮箱:fuyouu#yandex.com[#换成@]投诉。我们会在15个工作日内删除。 但烦请转载时请标明出处:“本文转载于『浮游电影网』,原文地址:https://www.fuyouu.com/18668.html

评论吧骚年!

发表你的见解   

昵称*

E-mail*(建议输入,以便收到博主回复的提示邮件)

验证码*

您可以使用eMule或eMule Mod(Windows)、aMule(Win、Linux、Mac)等软件下载eD2k链接。。
eMule收藏集(.emulecollection)文件是您选中的所有链接的列表文件。eMule可以直接下载它们。
按住SHIFT键选择可以选中多个选择框。
可用文件名和大小选择器来选择文件。
文件名选择器帮您根据文件名称或后缀来选择文件。不分大小写。
符号使用:
和:空格( )、+
不包含:-
或:|
转义:一对英文引号("");
匹配开头:^
匹配结尾:$
例如:
选中所有名称中包含有“eMule”或“0.49c”字眼,但不包含有“exe”字眼的:emule|0.49c -exe
选中所有名称的开头是“eMule”,结尾是“0.49c”的:^emule 0.49c$
选中所有名称中带有“eMule 0.49c”的(必须是“eMule 0.49c”,中间没有别的字符,不能是“eMule fake 0.49c”),需要转义:"emule 0.49c"
大小选择器帮您根据文件大小选择文件。