当前位置: 首页 >> 国产电影 >> 冤家宜解不宜结[国语配音/中文字幕].An.Enemy.Should.Be.Solve.2021.2160p.WEB-DL.H265.AAC-bt9527.cc 1.93GB >> 正文

冤家宜解不宜结[国语配音/中文字幕].An.Enemy.Should.Be.Solve.2021.2160p.WEB-DL.H265.AAC-bt9527.cc 1.93GB

2021年11月18日 08:41:49     电影发布:来源于网络     电影分类:国产电影     评论(0)    

冤家宜解不宜结[国语配音/中文字幕].An.Enemy.Should.Be.Solve.2021.2160p.WEB DL.H265.AAC bt9527.cc 1.93GB 犯罪片 喜剧片 剧情片 国产电影  第1张

◎译 名 冤家宜解不宜结 / An enemy should be solve

◎年 代 2021

◎产 地 中国大陆

◎类 别 剧情 / 喜剧 / 犯罪

◎语 言 汉语普通话

◎上映日期 2021-11-17(中国大陆)

◎IMDb链接 https://www.imdb.com/title//

◎豆瓣链接 https://movie.douban.com/subject/35150248/

◎导 演 邢冬冬 Dongdong Xing (id:1344587)

车志刚 Zhigang Che (id:1389474)

◎编 剧 刘爱银 Aiyin Liu (id:1376183)

王秀月 Xiuyue Wang (id:1376425)

周扬帆 Yangfan Zhou (id:1351797)

昕澍 (id:1429220)

贾妍 (id:1429042)

◎演 员 邵庄 Zhuang Shao (id:1325623)

杨羽 Yu Yang (id:1316764)

耿晓辉 Xiaohui Geng (id:1322313)

王辰昊 Chen-hao Wang (id:1336105)

安宁 Ning An (id:1316033)

邢冬冬 Dongdong Xing (id:1344587)

王冬 Dong Wang (id:1399210)

大牛 Chao Niu (id:1416024)

王秀月 Xiuyue Wang (id:1376425)

包志强 Zhiqiang Bao (id:1352453)

周扬帆 Yangfan Zhou (id:1351797)

车志刚 Zhigang Che (id:1389474)

周培岩 Peiyan Zhou (id:1442828)

李洪绸 Hongchou Li (id:1318129)

纪登超 Dengchao Ji (id:1443206)

◎标 签 毛骗团队 / 优映文化 / 邢冬冬 / 有生之年系列 / 毛骗 / 喜剧 / 李洪绸呢 / 网剧

◎简 介

邱天与小智是邻居,两人因为作息时间相反,频生摩擦,矛盾不断升级。邱天的手机不慎毁坏,此刻他又急需手机,向其他邻居求助无果,最终不得不向“死对头”小智求助。过程中,邱天弄丢了小智的手机卡。两人被迫共用一部手机,成为命运共同体。

之后,由于马文龙讨债五人组和卖假保健品郝仁的加入,使得意外频生,事件逐渐失控。两人深陷危机、险象环生。他们该如何自救,逃离困境……

  1. ##### MediaInfo ######

  2. General

  3. Complete name : 冤家宜解不宜结[email protected]Q.COM.mp4

  4. Format : MPEG-4

  5. Format profile : Base Media

  6. Codec ID : isom (isom/iso2/mp41)

  7. File size : 1.93 GiB

  8. Duration : 1 h 56 min

  9. Overall bit rate : 2 373 kb/s

  10. Writing application : Lavf58.17.103


  11. Video

  12. ID : 1

  13. Format : HEVC

  14. Format/Info : High Efficiency Video Coding

  15. Format profile : [email protected]@Main

  16. Codec ID : hev1

  17. Codec ID/Info : High Efficiency Video Coding

  18. Duration : 1 h 56 min

  19. Bit rate : 2 176 kb/s

  20. Width : 3 840 pixels

  21. Height : 1 632 pixels

  22. Display aspect ratio : 2.35:1

  23. Frame rate mode : Constant

  24. Frame rate : 25.000 FPS

  25. Color space : YUV

  26. Chroma subsampling : 4:2:0

  27. Bit depth : 8 bits

  28. Bits/(Pixel*Frame) : 0.014

  29. Stream size : 1.77 GiB (92%)

  30. Codec configuration box : hvcC


  31. Audio

  32. ID : 2

  33. Format : AAC LC

  34. Format/Info : Advanced Audio Codec Low Complexity

  35. Codec ID : mp4a-40-2

  36. Duration : 1 h 56 min

  37. Bit rate mode : Constant

  38. Bit rate : 192 kb/s

  39. Channel(s) : 2 channels

  40. Channel layout : L R

  41. Sampling rate : 44.1 kHz

  42. Frame rate : 43.066 FPS (1024 SPF)

  43. Compression mode : Lossy

  44. Stream size : 158 MiB (8%)

  45. Default : Yes

  46. Alternate group : 1




复制代码



文件下载


除非特别注明,本文『冤家宜解不宜结[国语配音/中文字幕].An.Enemy.Should.Be.Solve.2021.2160p.WEB-DL.H265.AAC-bt9527.cc 1.93GB』来源于互联网机器人自动抓取,非本站原创。 浮游电影网不对本文拥有版权,如有侵犯,请联系邮箱:fuyouu#yandex.com[#换成@]投诉。我们会在15个工作日内删除。 但烦请转载时请标明出处:“本文转载于『浮游电影网』,原文地址:https://www.fuyouu.com/18667.html

评论吧骚年!

发表你的见解   

昵称*

E-mail*(建议输入,以便收到博主回复的提示邮件)

验证码*

您可以使用eMule或eMule Mod(Windows)、aMule(Win、Linux、Mac)等软件下载eD2k链接。。
eMule收藏集(.emulecollection)文件是您选中的所有链接的列表文件。eMule可以直接下载它们。
按住SHIFT键选择可以选中多个选择框。
可用文件名和大小选择器来选择文件。
文件名选择器帮您根据文件名称或后缀来选择文件。不分大小写。
符号使用:
和:空格( )、+
不包含:-
或:|
转义:一对英文引号("");
匹配开头:^
匹配结尾:$
例如:
选中所有名称中包含有“eMule”或“0.49c”字眼,但不包含有“exe”字眼的:emule|0.49c -exe
选中所有名称的开头是“eMule”,结尾是“0.49c”的:^emule 0.49c$
选中所有名称中带有“eMule 0.49c”的(必须是“eMule 0.49c”,中间没有别的字符,不能是“eMule fake 0.49c”),需要转义:"emule 0.49c"
大小选择器帮您根据文件大小选择文件。