当前位置: 首页 >> 海外电影 >> 国民警卫队[简繁字幕].The.Guard.2011.BluRay.1080p.DTS-HD.MA5.1.x265.10bit-bt9527.cc 8.40GB >> 正文

国民警卫队[简繁字幕].The.Guard.2011.BluRay.1080p.DTS-HD.MA5.1.x265.10bit-bt9527.cc 8.40GB

2021年11月18日 08:40:32     电影发布:来源于网络     电影分类:海外电影     评论(0)    

国民警卫队[简繁字幕].The.Guard.2011.BluRay.1080p.DTS HD.MA5.1.x265.10bit bt9527.cc 8.40GB 犯罪片 喜剧片 海外电影  第1张

◎译 名 国民警卫队 / 守卫 / 看守员 / 坏守卫

◎片 名 The Guard

◎年 代 2011

◎产 地 爱尔兰

◎类 别 喜剧 / 犯罪

◎语 言 英语 / 爱尔兰语

◎上映日期 2011-07-07(爱尔兰)

◎IMDb链接 https://www.imdb.com/title/tt1540133/

◎豆瓣评分 7.5/10 (8399人评价)

◎豆瓣链接 https://movie.douban.com/subject/4132395/

◎片 长 96分钟

◎导 演 约翰·迈克尔·麦克唐纳 John Michael McDonagh (id:1291520)

◎编 剧 约翰·迈克尔·麦克唐纳 John Michael McDonagh (id:1291520)

◎演 员 布莱丹·格里森 Brendan Gleeson (id:1000078)

唐·钱德尔 Don Cheadle (id:1053573)

利亚姆·坎宁安 Liam Cunningham (id:1018077)

马克·斯特朗 Mark Strong (id:1274374)

罗里·基南 Rory Keenan (id:1339742)

劳伦斯·金兰 Laurence Kinlan (id:1109525)

迈克尔·奥·莱恩 Michael Og Lane (id:1342879)

菲奥纽拉·弗拉纳根 Fionnula Flanagan (id:1036526)

多米妮克·麦克艾丽戈特 Dominique McElligott (id:1314551)

卡塔莉娜·凯斯 Katarina Cas (id:1316627)

李·马奇戴 Lee Magiday (id:1382952)

唐·钱德尔 Don Cheadle (id:1053573)

马丁·麦克唐纳 Martin McDonagh (id:1000304)

拉里·史密斯 Larry Smith (id:1382136)

吉娜·杰 Jina Jay (id:1395105)

埃默·尼·毛尔多姆奈 Eimer Ni Mhaoldomhnaigh (id:1291965)

◎标 签 爱尔兰 / 黑色幽默 / 喜剧 / 犯罪 / 2011 / 警匪 / 剧情 / JohnMichaelMcDonagh

◎简 介

爱尔兰都柏林戈尔韦郡探长格里?博伊尔(布莱丹?格里森 Brendan Gleeson 饰)收拾了瘾君子车祸暴毙的残局,迎来了新来报到的探员麦克布莱德,他们勘察犯罪现场,从证据推断杀手的类型,可惜两人思维大相径庭。博伊尔思维极其吊诡,令麦克布莱德完全不得要领。他们曾一同审问嫌疑犯,却发现他只是替死鬼,真凶仍逍遥法外。博伊尔虽然玩世不恭,但却是个孝子,其母大限将至,他挖空心思逗老人家开心。为了破获黑市价值5亿的毒品走私案,美国FBI探员温德尔(唐?钱德尔 Don Cheadle 饰)开始为警官们做案情分析,却屡屡遭博伊尔打断,正当上司要将博伊尔开除时,后者却一针见血地指出了报告中的最大漏洞——四名嫌疑犯中已有一人躺在太平间。这令温德尔对这个拿种族歧视开玩笑的博伊尔刮目相看。麦克布莱德在执勤中意外遭到哲学范儿歹徒杀害,他的妻子上门寻夫,让博伊尔倍感责任重大...

◎获奖情况 (共3项)

第61届柏林国际电影节 (2011)

特别提及

第69届金球奖 (2012)

电影类 音乐/喜剧片最佳男主角(提名)

└──布莱丹·格里森 (id:1000078)

第16届圣地亚哥影评人协会奖 (2011)

最佳男主角(提名)

└──布莱丹·格里森 (id:1000078)

  1. ##### MediaInfo ######

  2. General

  3. Unique ID : 285792519420818844213217192993616765560 (0xD701A3193611FD56F931D0958FEF2278)

  4. Complete name : [email protected].COM.mkv

  5. Format : Matroska

  6. Format version : Version 4

  7. File size : 8.40 GiB

  8. Duration : 1 h 36 min

  9. Overall bit rate mode : Variable

  10. Overall bit rate : 12.5 Mb/s

  11. Encoded date : UTC 2021-11-17 04:01:58

  12. Writing application : mkvmerge v49.0.0 ('Sick Of Losing Soulmates') 64-bit

  13. Writing library : libebml v1.4.0 + libmatroska v1.6.1


  14. Video

  15. ID : 1

  16. Format : HEVC

  17. Format/Info : High Efficiency Video Coding

  18. Format profile : Main [email protected]@High

  19. Codec ID : V_MPEGH/ISO/HEVC

  20. Duration : 1 h 36 min

  21. Bit rate : 10.2 Mb/s

  22. Width : 1 920 pixels

  23. Height : 814 pixels

  24. Display aspect ratio : 2.35:1

  25. Frame rate mode : Constant

  26. Frame rate : 23.976 (24000/1001/53354) FPS

  27. Color space : YUV

  28. Chroma subsampling : 4:2:0

  29. Bit depth : 10 bits

  30. Bits/(Pixel*Frame) : 0.271

  31. Stream size : 6.84 GiB (81%)

  32. Title : HEVC, [email protected]@High, 24/1.001 fps @ 10172 kbps

  33. Writing library : x265 3.4+14-gd419c7152:[Windows][GCC 10.2.0][64 bit] 10bit

  34. Encoding settings : cpuid=533541111039 / frame-threads=4 / numa-pools=16 / wpp / pmode / pme / no-psnr / no-ssim / log-level=2 / input-csp=1 / input-res=1920x814 / interlace=0 / total-frames=138420 / level-idc=51 / high-tier=1 / uhd-bd=0 / ref=5 / no-allow-non-conformance / no-repeat-headers / annexb / no-aud / no-hrd / info / hash=0 / no-temporal-layers / open-gop / min-keyint=24 / keyint=240 / gop-lookahead=0 / bframes=6 / b-adapt=2 / b-pyramid / bframe-bias=0 / rc-lookahead=40 / lookahead-slices=0 / NTMzNTQ=uuDQuD2mJt9fsCf / scenecut=40 / hist-scenecut=0 / radl=0 / no-splice / no-intra-refresh / ctu=32 / min-cu-size=8 / no-rect / no-amp / max-tu-size=32 / tu-inter-depth=3 / tu-intra-depth=3 / limit-tu=4 / rdoq-level=2 / dynamic-rd=0.00 / no-ssim-rd / signhide / no-tskip / nr-intra=0 / nr-inter=0 / no-constrained-intra / no-strong-intra-smoothing / max-merge=4 / limit-refs=1 / limit-modes / me=3 / subme=4 / merange=25 / temporal-mvp / no-frame-dup / no-hme / weightp / weightb / no-analyze-src-pics / deblock=-3:-3 / no-sao / no-sao-non-deblock / rd=6 / selective-sao=0 / no-early-skip / rskip / no-fast-intra / no-tskip-fast / no-cu-lossless / b-intra / no-splitrd-skip / rdpenalty=0 / psy-rd=2.00 / psy-rdoq=1.00 / no-rd-refine / no-lossless / cbqpoffs=0 / crqpoffs=0 / rc=crf / crf=17.0 / qcomp=0.65 / qpstep=4 / stats-write=0 / stats-read=0 / vbv-maxrate=80000 / vbv-bufsize=80000 / vbv-init=0.9 / crf-max=0.0 / crf-min=0.0 / ipratio=1.40 / pbratio=1.30 / aq-mode=2 / aq-strength=0.85 / cutree / zone-count=0 / no-strict-cbr / qg-size=32 / no-rc-grain / qpmax=69 / qpmin=0 / no-const-vbv / sar=1 / overscan=0 / videoformat=5 / range=0 / colorprim=1 / transfer=1 / colormatrix=1 / chromaloc=0 / display-window=0 / cll=0,0 / min-luma=0 / max-luma=1023 / log2-max-poc-lsb=8 / vui-timing-info / vui-hrd-info / slices=1 / no-opt-qp-pps / no-opt-ref-list-length-pps / no-multi-pass-opt-rps / scenecut-bias=0.05 / hist-threshold=0.03 / no-opt-cu-delta-qp / no-aq-motion / no-hdr10 / no-hdr10-opt / no-dhdr10-opt / no-idr-recovery-sei / analysis-reuse-level=0 / analysis-save-reuse-level=0 / analysis-load-reuse-level=0 / scale-factor=0 / refine-intra=0 / refine-inter=0 / refine-mv=1 / refine-ctu-distortion=0 / no-limit-sao / ctu-info=0 / no-lowpass-dct / refine-analysis-type=0 / copy-pic=1 / max-ausize-factor=1.0 / no-dynamic-refine / no-single-sei / no-hevc-aq / no-svt / no-field / qp-adaptation-range=1.00 / no-scenecut-aware-qpconformance-window-offsets / right=0 / bottom=0 / NTMzNTQ= / decoder-max-rate=0

  35. Language : English

  36. Default : Yes

  37. Forced : No

  38. Color range : Limited

  39. Color primaries : BT.709

  40. Transfer characteristics : BT.709

  41. Matrix coefficients : BT.709


  42. Audio #1

  43. ID : 2

  44. Format : DTS XLL

  45. Format/Info : Digital Theater Systems

  46. Commercial name : DTS-HD Master Audio

  47. Codec ID : A_DTS

  48. Duration : 1 h 36 min

  49. Bit rate mode : Variable

  50. Bit rate : 2 045 kb/s

  51. Channel(s) : 6 channels

  52. Channel layout : C L R Ls Rs LFE

  53. Sampling rate : 48.0 kHz

  54. Frame rate : 93.750 FPS (512 SPF)

  55. Bit depth : 16 bits

  56. Compression mode : Lossless

  57. Stream size : 1.37 GiB (16%)

  58. Title : English DTS-HD Master Audio 5.1 @ 2043 kbps

  59. Language : English

  60. Default : Yes

  61. Forced : No


  62. Audio #2

  63. ID : 3

  64. Format : AC-3

  65. Format/Info : Audio Coding 3

  66. Commercial name : Dolby Digital

  67. Codec ID : A_AC3

  68. Duration : 1 h 36 min

  69. Bit rate mode : Constant

  70. Bit rate : 192 kb/s

  71. Channel(s) : 2 channels

  72. Channel layout : L R

  73. Sampling rate : 48.0 kHz

  74. Frame rate : 31.250 FPS (1536 SPF)

  75. Compression mode : Lossy

  76. Stream size : 132 MiB (2%)

  77. Title : English Dolby Digital Audio 2.0 @ 192 kbps Commentary

  78. Language : English

  79. Service kind : Complete Main

  80. Default : No

  81. Forced : No


  82. Text #1

  83. ID : 4

  84. Format : PGS

  85. Codec ID : S_HDMV/PGS

  86. Codec ID/Info : Picture based subtitle format used on BDs/HD-DVDs

  87. Duration : 1 h 29 min

  88. Bit rate : 30.1 kb/s

  89. Count of elements : 2234

  90. Stream size : 19.3 MiB (0%)

  91. Title : Eng/SUP

  92. Language : English

  93. Default : No

  94. Forced : No


  95. Text #2

  96. ID : 5

  97. Format : PGS

  98. Codec ID : S_HDMV/PGS

  99. Codec ID/Info : Picture based subtitle format used on BDs/HD-DVDs

  100. Duration : 1 h 32 min

  101. Bit rate : 28.9 kb/s

  102. Count of elements : 2316

  103. Stream size : 19.2 MiB (0%)

  104. Title : Chs/SUP 简体

  105. Language : Chinese

  106. Default : Yes

  107. Forced : No


  108. Text #3

  109. ID : 6

  110. Format : PGS

  111. Codec ID : S_HDMV/PGS

  112. Codec ID/Info : Picture based subtitle format used on BDs/HD-DVDs

  113. Duration : 1 h 32 min

  114. Bit rate : 30.3 kb/s

  115. Count of elements : 2316

  116. Stream size : 20.1 MiB (0%)

  117. Title : Cht/SUP 繁体

  118. Language : Chinese

  119. Default : No

  120. Forced : No


  121. Menu

  122. 00:00:00.000 : en:第 01 章

  123. 00:07:50.970 : en:第 02 章

  124. 00:13:05.994 : en:第 03 章

  125. 00:24:17.081 : en:第 04 章

  126. 00:31:29.054 : en:第 05 章

  127. 00:38:19.214 : en:第 06 章

  128. 00:45:54.043 : en:第 07 章

  129. 00:54:32.519 : en:第 08 章

  130. 01:03:52.037 : en:第 09 章

  131. 01:10:09.872 : en:第 10 章

  132. 01:17:14.046 : en:第 11 章

  133. 01:28:13.121 : en:第 12 章




复制代码



文件下载


除非特别注明,本文『国民警卫队[简繁字幕].The.Guard.2011.BluRay.1080p.DTS-HD.MA5.1.x265.10bit-bt9527.cc 8.40GB』来源于互联网机器人自动抓取,非本站原创。 浮游电影网不对本文拥有版权,如有侵犯,请联系邮箱:fuyouu#yandex.com[#换成@]投诉。我们会在15个工作日内删除。 但烦请转载时请标明出处:“本文转载于『浮游电影网』,原文地址:https://www.fuyouu.com/18666.html

评论吧骚年!

发表你的见解   

昵称*

E-mail*(建议输入,以便收到博主回复的提示邮件)

验证码*

您可以使用eMule或eMule Mod(Windows)、aMule(Win、Linux、Mac)等软件下载eD2k链接。。
eMule收藏集(.emulecollection)文件是您选中的所有链接的列表文件。eMule可以直接下载它们。
按住SHIFT键选择可以选中多个选择框。
可用文件名和大小选择器来选择文件。
文件名选择器帮您根据文件名称或后缀来选择文件。不分大小写。
符号使用:
和:空格( )、+
不包含:-
或:|
转义:一对英文引号("");
匹配开头:^
匹配结尾:$
例如:
选中所有名称中包含有“eMule”或“0.49c”字眼,但不包含有“exe”字眼的:emule|0.49c -exe
选中所有名称的开头是“eMule”,结尾是“0.49c”的:^emule 0.49c$
选中所有名称中带有“eMule 0.49c”的(必须是“eMule 0.49c”,中间没有别的字符,不能是“eMule fake 0.49c”),需要转义:"emule 0.49c"
大小选择器帮您根据文件大小选择文件。