当前位置: 首页 >> 欧美电影 >> 柔道煞星[双语字幕].Jiu.Jitsu.2020.1080p.BluRay.DTS.x265-10bit-bt9527.cc 8.76GB >> 正文

柔道煞星[双语字幕].Jiu.Jitsu.2020.1080p.BluRay.DTS.x265-10bit-bt9527.cc 8.76GB

2021年11月18日 08:26:20     电影发布:来源于网络     电影分类:欧美电影     评论(0)    

柔道煞星[双语字幕].Jiu.Jitsu.2020.1080p.BluRay.DTS.x265 10bit bt9527.cc 8.76GB 奇幻片 动作片 欧美电影  第1张

◎译 名 柔道煞星 / 柔术

◎片 名 Jiu Jitsu

◎年 代 2020

◎产 地 美国

◎类 别 动作 / 奇幻

◎语 言 英语

◎上映日期 2020-11-20(美国) / 2020-12-04(荷兰)

◎IMDb链接 https://www.imdb.com/title/tt9624766/

◎豆瓣评分 3.0/10 (711人评价)

◎豆瓣链接 https://movie.douban.com/subject/32578681/

◎片 长 102分钟

◎导 演 迪米特里·洛戈塞蒂斯 Dimitri Logothetis (id:1364232)

◎编 剧 迪米特里·洛戈塞蒂斯 Dimitri Logothetis (id:1364232)

吉姆·麦格拉思 Jim McGrath (id:1389699)

◎演 员 阿兰·莫西 Alain Moussi (id:1265433)

尼古拉斯·凯奇 Nicolas Cage (id:1054455)

尹成植 Rick Yune (id:1022705)

玛莉·艾格洛蒲露丝 Marie Avgeropoulos (id:1327268)

陈钰芸 Juju Chan (id:1354777)

托尼·贾 Tony Jaa (id:1004643)

弗兰克·格里罗 Frank Grillo (id:1100321)

汤姆·沃克 Tom Walker (id:1350871)

杰姆斯·班尼特 James P. Bennett (id:1269742)

马雷塞·克伦普 Marrese Crump (id:1338529)

约翰·D·希克曼 John D. Hickman (id:1428172)

兰迪·库卓 Randy Couture (id:1009313)

◎标 签 动作 / 尼古拉斯·凯奇 / 奇幻 / 美国 / 美国电影 / 漫改 / 2020 / 柔术

◎简 介

尼古拉斯·凯奇、阿兰·莫西(《泰坦》《搏击之王》系列)将主演动作片《柔道煞星》(Jiu Jitsu),迪米特里·洛戈塞蒂斯(《搏击之王》系列)自编自导。基于同名漫画,讲述一群古代的柔术高手每隔六年就要在一场争夺地球的战斗中面对可怕的外星入侵者。凯奇的角色和他的柔术团队与莫西 的角色联手获得胜利。

  1. ##### MediaInfo ######

  2. General

  3. Unique ID : 31945242628309359367369839869321861977 (0x18086E1046C00714C6A4B5F5F270DB59)

  4. Complete name : [email protected]

  5. Format : Matroska

  6. Format version : Version 4

  7. File size : 8.76 GiB

  8. Duration : 1 h 42 min

  9. Overall bit rate : 12.3 Mb/s

  10. Movie name : Jiu Jitsu 2020 1080p BluRay DTS [email protected]

  11. Encoded date : UTC 2021-11-16 01:07:20

  12. Writing application : mkvmerge v38.0.0 ('The Silent Type') 64-bit

  13. Writing library : libebml v1.3.9 + libmatroska v1.5.2


  14. Video

  15. ID : 1

  16. Format : HEVC

  17. Format/Info : High Efficiency Video Coding

  18. Format profile : Main [email protected]@High

  19. Codec ID : V_MPEGH/ISO/HEVC

  20. Duration : 1 h 42 min

  21. Bit rate : 10.7 Mb/s

  22. Width : 1 920 pixels

  23. Height : 804 pixels

  24. Display aspect ratio : 2.40:1

  25. Frame rate mode : Constant

  26. Frame rate : 23.976 (24000/1001/53354) FPS

  27. Color space : YUV

  28. Chroma subsampling : 4:2:0

  29. Bit depth : 10 bits

  30. Bits/(Pixel*Frame) : 0.289

  31. Stream size : 7.62 GiB (87%)

  32. Title : @HDSky

  33. Writing library : x265 - H.265/HEVC codec

  34. Default : Yes

  35. Forced : No


  36. Audio

  37. ID : 2

  38. Format : DTS

  39. Format/Info : Digital Theater Systems

  40. Codec ID : A_DTS

  41. Duration : 1 h 42 min

  42. Bit rate mode : Constant

  43. Bit rate : 1 509 kb/s

  44. Channel(s) : 6 channels

  45. Channel layout : C L R Ls Rs LFE

  46. Sampling rate : 48.0 kHz

  47. Frame rate : 93.750 FPS (512 SPF)

  48. Bit depth : 24 bits

  49. Compression mode : Lossy

  50. Stream size : 1.08 GiB (12%)

  51. Title : English

  52. Language : English

  53. Default : Yes

  54. Forced : No


  55. Text #1

  56. ID : 3

  57. Format : PGS

  58. Muxing mode : zlib

  59. Codec ID : S_HDMV/PGS

  60. Codec ID/Info : Picture based subtitle format used on BDs/HD-DVDs

  61. Duration : 1 h 36 min

  62. Bit rate : 31.1 kb/s

  63. Count of elements : 2403

  64. Stream size : 21.5 MiB (0%)

  65. Title : CHS

  66. Language : Chinese

  67. Default : Yes

  68. Forced : No


  69. Text #2

  70. ID : 4

  71. Format : PGS

  72. Muxing mode : zlib

  73. Codec ID : S_HDMV/PGS

  74. Codec ID/Info : Picture based subtitle format used on BDs/HD-DVDs

  75. Duration : 1 h 36 min

  76. Bit rate : 32.3 kb/s

  77. Count of elements : 2403

  78. Stream size : 22.4 MiB (0%)

  79. Title : CHT

  80. Language : Chinese

  81. Default : No

  82. Forced : No


  83. Text #3

  84. ID : 5

  85. Format : PGS

  86. Muxing mode : zlib

  87. Codec ID : S_HDMV/PGS

  88. Codec ID/Info : Picture based subtitle format used on BDs/HD-DVDs

  89. Duration : 1 h 36 min

  90. Bit rate : 42.0 kb/s

  91. Count of elements : 2403

  92. Stream size : 29.1 MiB (0%)

  93. Title : CHS&ENG

  94. Language : Chinese

  95. Default : No

  96. Forced : No


  97. Text #4

  98. ID : 6

  99. Format : PGS

  100. Muxing mode : zlib

  101. Codec ID : S_HDMV/PGS

  102. Codec ID/Info : Picture based subtitle format used on BDs/HD-DVDs

  103. Duration : 1 h 36 min

  104. Bit rate : 43.3 kb/s

  105. Count of elements : 2403

  106. Stream size : 30.0 MiB (0%)

  107. Title : CHT&ENG

  108. Language : Chinese

  109. Default : No

  110. Forced : No


  111. Menu

  112. 00:00:00.000 : en:Chapter 01

  113. 00:05:39.881 : en:Chapter 02

  114. 00:14:15.855 : en:Chapter 03

  115. 00:25:25.858 : en:Chapter 04

  116. 00:33:13.158 : en:Chapter 05

  117. 00:44:36.299 : en:Chapter 06

  118. 00:53:18.237 : en:Chapter 07

  119. 01:03:39.190 : en:Chapter 08

  120. 01:11:08.806 : en:Chapter 09

  121. 01:24:07.709 : en:Chapter 10

  122. 01:29:45.589 : en:Chapter 11

  123. 01:38:03.377 : en:Chapter 12




复制代码



文件下载


除非特别注明,本文『柔道煞星[双语字幕].Jiu.Jitsu.2020.1080p.BluRay.DTS.x265-10bit-bt9527.cc 8.76GB』来源于互联网机器人自动抓取,非本站原创。 浮游电影网不对本文拥有版权,如有侵犯,请联系邮箱:fuyouu#yandex.com[#换成@]投诉。我们会在15个工作日内删除。 但烦请转载时请标明出处:“本文转载于『浮游电影网』,原文地址:https://www.fuyouu.com/18658.html

评论吧骚年!

发表你的见解   

昵称*

E-mail*(建议输入,以便收到博主回复的提示邮件)

验证码*

您可以使用eMule或eMule Mod(Windows)、aMule(Win、Linux、Mac)等软件下载eD2k链接。。
eMule收藏集(.emulecollection)文件是您选中的所有链接的列表文件。eMule可以直接下载它们。
按住SHIFT键选择可以选中多个选择框。
可用文件名和大小选择器来选择文件。
文件名选择器帮您根据文件名称或后缀来选择文件。不分大小写。
符号使用:
和:空格( )、+
不包含:-
或:|
转义:一对英文引号("");
匹配开头:^
匹配结尾:$
例如:
选中所有名称中包含有“eMule”或“0.49c”字眼,但不包含有“exe”字眼的:emule|0.49c -exe
选中所有名称的开头是“eMule”,结尾是“0.49c”的:^emule 0.49c$
选中所有名称中带有“eMule 0.49c”的(必须是“eMule 0.49c”,中间没有别的字符,不能是“eMule fake 0.49c”),需要转义:"emule 0.49c"
大小选择器帮您根据文件大小选择文件。