当前位置: 首页 >> 海外电影 >> 一个女孩和一个男孩[中文字幕].A.Girl.and.a.Guy.2021.1080p.NF.WEB-DL.DDP5.1.x264-bt9527.cc 3.55GB >> 正文

一个女孩和一个男孩[中文字幕].A.Girl.and.a.Guy.2021.1080p.NF.WEB-DL.DDP5.1.x264-bt9527.cc 3.55GB

2021年11月16日 12:30:52     电影发布:来源于网络     电影分类:海外电影     评论(0)    

一个女孩和一个男孩[中文字幕].A.Girl.and.a.Guy.2021.1080p.NF.WEB DL.DDP5.1.x264 bt9527.cc 3.55GB 爱情片 喜剧片 海外电影  第1张

◎译 名 一个女孩和一个男孩

◎片 名 A Girl and A Guy

◎年 代 2021

◎产 地 菲律宾

◎类 别 喜剧 / 爱情

◎语 言 他加禄语 / 英语

◎上映日期 2021-06-24(菲律宾)

◎IMDb链接 https://www.imdb.com/title/tt14992902/

◎豆瓣链接 https://movie.douban.com/subject/35543613/

◎片 长 126分钟

◎导 演 埃里克·马蒂 Erik Matti (id:1291310)

◎编 剧 埃里克·马蒂 Erik Matti (id:1291310)

◎简 介

A Girl and A Guy is a modern tale of young adults navigating the tricky world of relationships, connection, and intimacy in today's society. The film tells the story of a girl, the story of a guy, and the story of a girl and a guy.

  1. ##### MediaInfo ######

  2. General

  3. Unique ID : 186739729802426742436301031774768468146 (0x8C7CC384AEC63B003CD9F215353E10B2)

  4. Complete name : [email protected]OM.mkv

  5. Format : Matroska

  6. Format version : Version 4

  7. File size : 3.55 GiB

  8. Duration : 2 h 10 min

  9. Overall bit rate mode : Variable

  10. Overall bit rate : 3 896 kb/s

  11. Encoded date : UTC 2021-11-14 18:41:34

  12. Writing application : mkvmerge v62.0.0 ('Apollo') 64-bit

  13. Writing library : libebml v1.4.2 + libmatroska v1.6.4


  14. Video

  15. ID : 1

  16. Format : AVC

  17. Format/Info : Advanced Video Codec

  18. Format profile : [email protected]

  19. Format settings : CABAC / 4 Ref Frames

  20. Format settings, CABAC : Yes

  21. Format settings, Reference frames : 4 frames

  22. Codec ID : V_MPEG4/ISO/AVC

  23. Duration : 2 h 10 min

  24. Bit rate mode : Variable

  25. Bit rate : 3 254 kb/s

  26. Maximum bit rate : 20.0 Mb/s

  27. Width : 1 920 pixels

  28. Height : 1 080 pixels

  29. Display aspect ratio : 16:9

  30. Frame rate mode : Constant

  31. Frame rate : 23.976 (24000/1001/53354) FPS

  32. Color space : YUV

  33. Chroma subsampling : 4:2:0

  34. Bit depth : 8 bits

  35. Scan type : Progressive

  36. Bits/(Pixel*Frame) : 0.065

  37. Stream size : 2.97 GiB (84%)

  38. Writing library : x264 core 148 r2724 dbe0335

  39. Encoding settings : cabac=1 / ref=4 / deblock=1:0:0 / analyse=0x3:0x111 / me=umh / subme=10 / psy=1 / psy_rd=1.00:0.00 / mixed_ref=1 / me_range=120 / chroma_me=1 / trellis=2 / 8x8dct=1 / cqm=0 / deadzone=21,11 / fast_pskip=1 / chroma_qp_offset=-2 / threads=8 / lookahead_threads=2 / sliced_threads=0 / nr=0 / decimate=1 / interlaced=0 / NTMzNTQ= / bluray_compat=0 / stitchable=1 / constrained_intra=0 / bframes=16 / b_pyramid=2 / b_adapt=2 / b_bias=0 / direct=3 / weightb=1 / open_gop=0 / weightp=2 / keyint=240 / keyint_min=121 / scenecut=0 / intra_refresh=0 / rc_lookahead=240 / rc=crf / mbtree=1 / crf=21.0 / qcomp=0.50 / qpmin=6 / qpmax=51 / qpstep=4 / vbv_maxrate=20000 / vbv_bufsize=25000 / crf_max=0.0 / nal_hrd=vbr / filler=0 / NTMzNTQ=LmsMAP37EqsCpk / ip_ratio=1.40 / aq=1:0.80

  40. Default : Yes

  41. Forced : No


  42. Audio

  43. ID : 2

  44. Format : E-AC-3

  45. Format/Info : Enhanced AC-3

  46. Commercial name : Dolby Digital Plus

  47. Codec ID : A_EAC3

  48. Duration : 2 h 10 min

  49. Bit rate mode : Constant

  50. Bit rate : 640 kb/s

  51. Channel(s) : 6 channels

  52. Channel layout : L R C LFE Ls Rs

  53. Sampling rate : 48.0 kHz

  54. Frame rate : 31.250 FPS (1536 SPF)

  55. Compression mode : Lossy

  56. Stream size : 598 MiB (16%)

  57. Title : Filipino

  58. Language : fil

  59. Service kind : Complete Main

  60. Default : Yes

  61. Forced : No


  62. Text #1

  63. ID : 3

  64. Format : UTF-8

  65. Codec ID : S_TEXT/UTF8

  66. Codec ID/Info : UTF-8 Plain Text

  67. Duration : 2 h 1 min

  68. Bit rate : 33 b/s

  69. Count of elements : 1093

  70. Stream size : 29.7 KiB (0%)

  71. Title : English

  72. Language : English

  73. Default : Yes

  74. Forced : No


  75. Text #2

  76. ID : 4

  77. Format : UTF-8

  78. Codec ID : S_TEXT/UTF8

  79. Codec ID/Info : UTF-8 Plain Text

  80. Duration : 2 h 10 min

  81. Bit rate : 45 b/s

  82. Count of elements : 1814

  83. Stream size : 43.6 KiB (0%)

  84. Title : Chinese Simplified

  85. Language : Chinese

  86. Default : No

  87. Forced : No


  88. Text #3

  89. ID : 5

  90. Format : UTF-8

  91. Codec ID : S_TEXT/UTF8

  92. Codec ID/Info : UTF-8 Plain Text

  93. Duration : 2 h 10 min

  94. Bit rate : 42 b/s

  95. Count of elements : 1815

  96. Stream size : 40.7 KiB (0%)

  97. Title : Indonesian

  98. Language : Indonesian

  99. Default : No

  100. Forced : No


  101. Text #4

  102. ID : 6

  103. Format : UTF-8

  104. Codec ID : S_TEXT/UTF8

  105. Codec ID/Info : UTF-8 Plain Text

  106. Duration : 2 h 10 min

  107. Bit rate : 48 b/s

  108. Count of elements : 1814

  109. Stream size : 46.5 KiB (0%)

  110. Title : Malay

  111. Language : Malay

  112. Default : No

  113. Forced : No


  114. Text #5

  115. ID : 7

  116. Format : UTF-8

  117. Codec ID : S_TEXT/UTF8

  118. Codec ID/Info : UTF-8 Plain Text

  119. Duration : 2 h 10 min

  120. Bit rate : 113 b/s

  121. Count of elements : 1815

  122. Stream size : 109 KiB (0%)

  123. Title : Thai

  124. Language : Thai

  125. Default : No

  126. Forced : No


  127. Text #6

  128. ID : 8

  129. Format : UTF-8

  130. Codec ID : S_TEXT/UTF8

  131. Codec ID/Info : UTF-8 Plain Text

  132. Duration : 2 h 10 min

  133. Bit rate : 61 b/s

  134. Count of elements : 1814

  135. Stream size : 58.3 KiB (0%)

  136. Title : Vietnamese

  137. Language : Vietnamese

  138. Default : No

  139. Forced : No




复制代码




文件下载


除非特别注明,本文『一个女孩和一个男孩[中文字幕].A.Girl.and.a.Guy.2021.1080p.NF.WEB-DL.DDP5.1.x264-bt9527.cc 3.55GB』来源于互联网机器人自动抓取,非本站原创。 浮游电影网不对本文拥有版权,如有侵犯,请联系邮箱:fuyouu#yandex.com[#换成@]投诉。我们会在15个工作日内删除。 但烦请转载时请标明出处:“本文转载于『浮游电影网』,原文地址:https://www.fuyouu.com/18374.html

评论吧骚年!

发表你的见解   

昵称*

E-mail*(建议输入,以便收到博主回复的提示邮件)

验证码*

您可以使用eMule或eMule Mod(Windows)、aMule(Win、Linux、Mac)等软件下载eD2k链接。。
eMule收藏集(.emulecollection)文件是您选中的所有链接的列表文件。eMule可以直接下载它们。
按住SHIFT键选择可以选中多个选择框。
可用文件名和大小选择器来选择文件。
文件名选择器帮您根据文件名称或后缀来选择文件。不分大小写。
符号使用:
和:空格( )、+
不包含:-
或:|
转义:一对英文引号("");
匹配开头:^
匹配结尾:$
例如:
选中所有名称中包含有“eMule”或“0.49c”字眼,但不包含有“exe”字眼的:emule|0.49c -exe
选中所有名称的开头是“eMule”,结尾是“0.49c”的:^emule 0.49c$
选中所有名称中带有“eMule 0.49c”的(必须是“eMule 0.49c”,中间没有别的字符,不能是“eMule fake 0.49c”),需要转义:"emule 0.49c"
大小选择器帮您根据文件大小选择文件。