当前位置: 首页 >> 海外电影 >> 铁血女王阿米娜:征战天下[中文字幕].Amina.2021.1080p.NF.WEB-DL.DDP5.1.x264-bt9527.cc 4.71GB >> 正文

铁血女王阿米娜:征战天下[中文字幕].Amina.2021.1080p.NF.WEB-DL.DDP5.1.x264-bt9527.cc 4.71GB

2021年11月16日 12:24:55     电影发布:来源于网络     电影分类:海外电影     评论(0)    

铁血女王阿米娜:征战天下[中文字幕].Amina.2021.1080p.NF.WEB DL.DDP5.1.x264 bt9527.cc 4.71GB 冒险片 动作片 海外电影  第1张

◎译 名 铁血女王阿米娜:征战天下

◎片 名 Amina

◎年 代 2021

◎产 地 尼日利亚

◎类 别 动作 / 冒险

◎语 言 英语

◎上映日期 2021-11-04(尼日利亚)

◎IMDb链接 https://www.imdb.com/title//

◎豆瓣链接 https://movie.douban.com/subject/35655961/

◎片 长 105分钟

◎简 介

時值 16 世紀,在位於現今奈及利亞扎里亞的扎造王國,阿米娜必須運用自身的軍事技術與戰略技巧保衛自家王國。本片改編自真實故事。



  1. ##### MediaInfo ######

  2. General

  3. Unique ID : 23479901885594044488514835119783163856 (0x11AA108A7EDAABD702EC01D084B237D0)

  4. Complete name : [email protected]

  5. Format : Matroska

  6. Format version : Version 4

  7. File size : 4.71 GiB

  8. Duration : 1 h 45 min

  9. Overall bit rate mode : Variable

  10. Overall bit rate : 6 423 kb/s

  11. Encoded date : UTC 2021-11-15 00:54:30

  12. Writing application : mkvmerge v62.0.0 ('Apollo') 64-bit

  13. Writing library : libebml v1.4.2 + libmatroska v1.6.4


  14. Video

  15. ID : 1

  16. Format : AVC

  17. Format/Info : Advanced Video Codec

  18. Format profile : [email protected]

  19. Format settings : CABAC / 4 Ref Frames

  20. Format settings, CABAC : Yes

  21. Format settings, Reference frames : 4 frames

  22. Codec ID : V_MPEG4/ISO/AVC

  23. Duration : 1 h 45 min

  24. Bit rate mode : Variable

  25. Bit rate : 3 858 kb/s

  26. Maximum bit rate : 20.0 Mb/s

  27. Width : 1 920 pixels

  28. Height : 1 080 pixels

  29. Display aspect ratio : 16:9

  30. Frame rate mode : Constant

  31. Frame rate : 24.000 FPS

  32. Color space : YUV

  33. Chroma subsampling : 4:2:0

  34. Bit depth : 8 bits

  35. Scan type : Progressive

  36. Bits/(Pixel*Frame) : 0.078

  37. Stream size : 2.83 GiB (60%)

  38. Writing library : x264 core 148 r2724 dbe0335

  39. Encoding settings : cabac=1 / ref=4 / deblock=1:0:0 / analyse=0x3:0x111 / me=umh / subme=10 / psy=1 / psy_rd=1.00:0.00 / mixed_ref=1 / me_range=120 / chroma_me=1 / trellis=2 / 8x8dct=1 / cqm=0 / deadzone=21,11 / fast_pskip=1 / chroma_qp_offset=-2 / threads=6 / lookahead_threads=1 / sliced_threads=0 / nr=0 / decimate=1 / interlaced=0 / NTMzNTQ= / bluray_compat=0 / stitchable=1 / constrained_intra=0 / bframes=16 / b_pyramid=2 / b_adapt=2 / b_bias=0 / direct=3 / weightb=1 / open_gop=0 / weightp=2 / keyint=240 / keyint_min=121 / scenecut=0 / intra_refresh=0 / rc_lookahead=240 / rc=crf / mbtree=1 / crf=16.0 / qcomp=0.50 / qpmin=6 / qpmax=51 / qpstep=4 / vbv_maxrate=20000 / vbv_bufsize=25000 / crf_max=0.0 / nal_hrd=vbr / filler=0 / NTMzNTQ=LmsMAP37EqsCpk / ip_ratio=1.40 / aq=1:0.80

  40. Default : Yes

  41. Forced : No


  42. Audio #1

  43. ID : 2

  44. Format : E-AC-3

  45. Format/Info : Enhanced AC-3

  46. Commercial name : Dolby Digital Plus

  47. Codec ID : A_EAC3

  48. Duration : 1 h 45 min

  49. Bit rate mode : Constant

  50. Bit rate : 640 kb/s

  51. Channel(s) : 6 channels

  52. Channel layout : L R C LFE Ls Rs

  53. Sampling rate : 48.0 kHz

  54. Frame rate : 31.250 FPS (1536 SPF)

  55. Compression mode : Lossy

  56. Stream size : 481 MiB (10%)

  57. Title : English

  58. Language : English

  59. Service kind : Complete Main

  60. Default : Yes

  61. Forced : No


  62. Audio #2

  63. ID : 3

  64. Format : E-AC-3

  65. Format/Info : Enhanced AC-3

  66. Commercial name : Dolby Digital Plus

  67. Codec ID : A_EAC3

  68. Duration : 1 h 45 min

  69. Bit rate mode : Constant

  70. Bit rate : 640 kb/s

  71. Channel(s) : 6 channels

  72. Channel layout : L R C LFE Ls Rs

  73. Sampling rate : 48.0 kHz

  74. Frame rate : 31.250 FPS (1536 SPF)

  75. Compression mode : Lossy

  76. Stream size : 481 MiB (10%)

  77. Title : French

  78. Language : French

  79. Service kind : Complete Main

  80. Default : No

  81. Forced : No


  82. Audio #3

  83. ID : 4

  84. Format : E-AC-3

  85. Format/Info : Enhanced AC-3

  86. Commercial name : Dolby Digital Plus

  87. Codec ID : A_EAC3

  88. Duration : 1 h 45 min

  89. Bit rate mode : Constant

  90. Bit rate : 640 kb/s

  91. Channel(s) : 6 channels

  92. Channel layout : L R C LFE Ls Rs

  93. Sampling rate : 48.0 kHz

  94. Frame rate : 31.250 FPS (1536 SPF)

  95. Compression mode : Lossy

  96. Stream size : 481 MiB (10%)

  97. Title : Brazilian Portuguese

  98. Language : Portuguese

  99. Service kind : Complete Main

  100. Default : No

  101. Forced : No


  102. Audio #4

  103. ID : 5

  104. Format : E-AC-3

  105. Format/Info : Enhanced AC-3

  106. Commercial name : Dolby Digital Plus

  107. Codec ID : A_EAC3

  108. Duration : 1 h 45 min

  109. Bit rate mode : Constant

  110. Bit rate : 640 kb/s

  111. Channel(s) : 6 channels

  112. Channel layout : L R C LFE Ls Rs

  113. Sampling rate : 48.0 kHz

  114. Frame rate : 31.250 FPS (1536 SPF)

  115. Compression mode : Lossy

  116. Stream size : 481 MiB (10%)

  117. Title : Spanish

  118. Language : Spanish

  119. Service kind : Complete Main

  120. Default : No

  121. Forced : No


  122. Text #1

  123. ID : 6

  124. Format : UTF-8

  125. Codec ID : S_TEXT/UTF8

  126. Codec ID/Info : UTF-8 Plain Text

  127. Duration : 1 h 43 min

  128. Bit rate : 62 b/s

  129. Count of elements : 1222

  130. Stream size : 47.9 KiB (0%)

  131. Title : English

  132. Language : English

  133. Default : Yes

  134. Forced : No


  135. Text #2

  136. ID : 7

  137. Format : UTF-8

  138. Codec ID : S_TEXT/UTF8

  139. Codec ID/Info : UTF-8 Plain Text

  140. Duration : 1 h 38 min

  141. Bit rate : 2 b/s

  142. Count of elements : 46

  143. Stream size : 1.67 KiB (0%)

  144. Title : English (Forced)

  145. Language : English

  146. Default : No

  147. Forced : Yes


  148. Text #3

  149. ID : 8

  150. Format : UTF-8

  151. Codec ID : S_TEXT/UTF8

  152. Codec ID/Info : UTF-8 Plain Text

  153. Duration : 1 h 41 min

  154. Bit rate : 62 b/s

  155. Count of elements : 936

  156. Stream size : 46.5 KiB (0%)

  157. Title : Arabic

  158. Language : Arabic

  159. Default : No

  160. Forced : No


  161. Text #4

  162. ID : 9

  163. Format : UTF-8

  164. Codec ID : S_TEXT/UTF8

  165. Codec ID/Info : UTF-8 Plain Text

  166. Duration : 1 h 44 min

  167. Bit rate : 33 b/s

  168. Count of elements : 954

  169. Stream size : 25.6 KiB (0%)

  170. Title : Chinese Simplified

  171. Language : Chinese

  172. Default : No

  173. Forced : No


  174. Text #5

  175. ID : 10

  176. Format : UTF-8

  177. Codec ID : S_TEXT/UTF8

  178. Codec ID/Info : UTF-8 Plain Text

  179. Duration : 1 h 44 min

  180. Bit rate : 33 b/s

  181. Count of elements : 950

  182. Stream size : 25.2 KiB (0%)

  183. Title : Chinese Traditional

  184. Language : Chinese

  185. Default : No

  186. Forced : No


  187. Text #6

  188. ID : 11

  189. Format : UTF-8

  190. Codec ID : S_TEXT/UTF8

  191. Codec ID/Info : UTF-8 Plain Text

  192. Duration : 1 h 44 min

  193. Bit rate : 35 b/s

  194. Count of elements : 960

  195. Stream size : 27.4 KiB (0%)

  196. Title : Croatian

  197. Language : Croatian

  198. Default : No

  199. Forced : No


  200. Text #7

  201. ID : 12

  202. Format : UTF-8

  203. Codec ID : S_TEXT/UTF8

  204. Codec ID/Info : UTF-8 Plain Text

  205. Duration : 1 h 44 min

  206. Bit rate : 36 b/s

  207. Count of elements : 932

  208. Stream size : 27.5 KiB (0%)

  209. Title : Czech

  210. Language : Czech

  211. Default : No

  212. Forced : No


  213. Text #8

  214. ID : 13

  215. Format : UTF-8

  216. Codec ID : S_TEXT/UTF8

  217. Codec ID/Info : UTF-8 Plain Text

  218. Duration : 1 h 44 min

  219. Bit rate : 36 b/s

  220. Count of elements : 948

  221. Stream size : 27.8 KiB (0%)

  222. Title : Danish

  223. Language : Danish

  224. Default : No

  225. Forced : No


  226. Text #9

  227. ID : 14

  228. Format : UTF-8

  229. Codec ID : S_TEXT/UTF8

  230. Codec ID/Info : UTF-8 Plain Text

  231. Duration : 1 h 41 min

  232. Bit rate : 39 b/s

  233. Count of elements : 926

  234. Stream size : 29.1 KiB (0%)

  235. Title : Dutch

  236. Language : Dutch

  237. Default : No

  238. Forced : No


  239. Text #10

  240. ID : 15

  241. Format : UTF-8

  242. Codec ID : S_TEXT/UTF8

  243. Codec ID/Info : UTF-8 Plain Text

  244. Duration : 1 h 44 min

  245. Bit rate : 39 b/s

  246. Count of elements : 924

  247. Stream size : 30.3 KiB (0%)

  248. Title : Finnish

  249. Language : Finnish

  250. Default : No

  251. Forced : No


  252. Text #11

  253. ID : 16

  254. Format : UTF-8

  255. Codec ID : S_TEXT/UTF8

  256. Codec ID/Info : UTF-8 Plain Text

  257. Duration : 1 h 44 min

  258. Bit rate : 37 b/s

  259. Count of elements : 920

  260. Stream size : 28.6 KiB (0%)

  261. Title : French

  262. Language : French

  263. Default : No

  264. Forced : No


  265. Text #12

  266. ID : 17

  267. Format : UTF-8

  268. Codec ID : S_TEXT/UTF8

  269. Codec ID/Info : UTF-8 Plain Text

  270. Duration : 1 h 44 min

  271. Bit rate : 40 b/s

  272. Count of elements : 924

  273. Stream size : 30.7 KiB (0%)

  274. Title : German

  275. Language : German

  276. Default : No

  277. Forced : No


  278. Text #13

  279. ID : 18

  280. Format : UTF-8

  281. Codec ID : S_TEXT/UTF8

  282. Codec ID/Info : UTF-8 Plain Text

  283. Duration : 1 h 44 min

  284. Bit rate : 66 b/s

  285. Count of elements : 964

  286. Stream size : 51.0 KiB (0%)

  287. Title : Greek

  288. Language : Greek

  289. Default : No

  290. Forced : No


  291. Text #14

  292. ID : 19

  293. Format : UTF-8

  294. Codec ID : S_TEXT/UTF8

  295. Codec ID/Info : UTF-8 Plain Text

  296. Duration : 1 h 44 min

  297. Bit rate : 59 b/s

  298. Count of elements : 956

  299. Stream size : 45.2 KiB (0%)

  300. Title : Hebrew

  301. Language : Hebrew

  302. Default : No

  303. Forced : No


  304. Text #15

  305. ID : 20

  306. Format : UTF-8

  307. Codec ID : S_TEXT/UTF8

  308. Codec ID/Info : UTF-8 Plain Text

  309. Duration : 1 h 44 min

  310. Bit rate : 37 b/s

  311. Count of elements : 943

  312. Stream size : 29.0 KiB (0%)

  313. Title : Hungarian

  314. Language : Hungarian

  315. Default : No

  316. Forced : No


  317. Text #16

  318. ID : 21

  319. Format : UTF-8

  320. Codec ID : S_TEXT/UTF8

  321. Codec ID/Info : UTF-8 Plain Text

  322. Duration : 1 h 44 min

  323. Bit rate : 40 b/s

  324. Count of elements : 957

  325. Stream size : 31.3 KiB (0%)

  326. Title : Indonesian

  327. Language : Indonesian

  328. Default : No

  329. Forced : No


  330. Text #17

  331. ID : 22

  332. Format : UTF-8

  333. Codec ID : S_TEXT/UTF8

  334. Codec ID/Info : UTF-8 Plain Text

  335. Duration : 1 h 44 min

  336. Bit rate : 39 b/s

  337. Count of elements : 953

  338. Stream size : 30.2 KiB (0%)

  339. Title : Italian

  340. Language : Italian

  341. Default : No

  342. Forced : No


  343. Text #18

  344. ID : 23

  345. Format : UTF-8

  346. Codec ID : S_TEXT/UTF8

  347. Codec ID/Info : UTF-8 Plain Text

  348. Duration : 1 h 44 min

  349. Bit rate : 37 b/s

  350. Count of elements : 958

  351. Stream size : 28.3 KiB (0%)

  352. Title : Japanese

  353. Language : Japanese

  354. Default : No

  355. Forced : No


  356. Text #19

  357. ID : 24

  358. Format : UTF-8

  359. Codec ID : S_TEXT/UTF8

  360. Codec ID/Info : UTF-8 Plain Text

  361. Duration : 1 h 44 min

  362. Bit rate : 47 b/s

  363. Count of elements : 976

  364. Stream size : 35.9 KiB (0%)

  365. Title : Korean

  366. Language : Korean

  367. Default : No

  368. Forced : No


  369. Text #20

  370. ID : 25

  371. Format : UTF-8

  372. Codec ID : S_TEXT/UTF8

  373. Codec ID/Info : UTF-8 Plain Text

  374. Duration : 1 h 43 min

  375. Bit rate : 38 b/s

  376. Count of elements : 954

  377. Stream size : 29.1 KiB (0%)

  378. Title : Malay

  379. Language : Malay

  380. Default : No

  381. Forced : No


  382. Text #21

  383. ID : 26

  384. Format : UTF-8

  385. Codec ID : S_TEXT/UTF8

  386. Codec ID/Info : UTF-8 Plain Text

  387. Duration : 1 h 44 min

  388. Bit rate : 35 b/s

  389. Count of elements : 836

  390. Stream size : 27.3 KiB (0%)

  391. Title : Norwegian Bokmal

  392. Language : Norwegian Bokmal

  393. Default : No

  394. Forced : No


  395. Text #22

  396. ID : 27

  397. Format : UTF-8

  398. Codec ID : S_TEXT/UTF8

  399. Codec ID/Info : UTF-8 Plain Text

  400. Duration : 1 h 44 min

  401. Bit rate : 36 b/s

  402. Count of elements : 926

  403. Stream size : 28.0 KiB (0%)

  404. Title : Polish

  405. Language : Polish

  406. Default : No

  407. Forced : No


  408. Text #23

  409. ID : 28

  410. Format : UTF-8

  411. Codec ID : S_TEXT/UTF8

  412. Codec ID/Info : UTF-8 Plain Text

  413. Duration : 1 h 44 min

  414. Bit rate : 39 b/s

  415. Count of elements : 965

  416. Stream size : 30.4 KiB (0%)

  417. Title : Portuguese

  418. Language : Portuguese

  419. Default : No

  420. Forced : No


  421. Text #24

  422. ID : 29

  423. Format : UTF-8

  424. Codec ID : S_TEXT/UTF8

  425. Codec ID/Info : UTF-8 Plain Text

  426. Duration : 1 h 44 min

  427. Bit rate : 38 b/s

  428. Count of elements : 956

  429. Stream size : 29.2 KiB (0%)

  430. Title : Brazilian Portuguese

  431. Language : Portuguese

  432. Default : No

  433. Forced : No


  434. Text #25

  435. ID : 30

  436. Format : UTF-8

  437. Codec ID : S_TEXT/UTF8

  438. Codec ID/Info : UTF-8 Plain Text

  439. Duration : 1 h 44 min

  440. Bit rate : 37 b/s

  441. Count of elements : 977

  442. Stream size : 28.6 KiB (0%)

  443. Title : Romanian

  444. Language : Romanian

  445. Default : No

  446. Forced : No


  447. Text #26

  448. ID : 31

  449. Format : UTF-8

  450. Codec ID : S_TEXT/UTF8

  451. Codec ID/Info : UTF-8 Plain Text

  452. Duration : 1 h 44 min

  453. Bit rate : 62 b/s

  454. Count of elements : 957

  455. Stream size : 47.5 KiB (0%)

  456. Title : Russian

  457. Language : Russian

  458. Default : No

  459. Forced : No


  460. Text #27

  461. ID : 32

  462. Format : UTF-8

  463. Codec ID : S_TEXT/UTF8

  464. Codec ID/Info : UTF-8 Plain Text

  465. Duration : 1 h 44 min

  466. Bit rate : 37 b/s

  467. Count of elements : 933

  468. Stream size : 28.4 KiB (0%)

  469. Title : Spanish

  470. Language : Spanish

  471. Default : No

  472. Forced : No


  473. Text #28

  474. ID : 33

  475. Format : UTF-8

  476. Codec ID : S_TEXT/UTF8

  477. Codec ID/Info : UTF-8 Plain Text

  478. Duration : 1 h 44 min

  479. Bit rate : 37 b/s

  480. Count of elements : 928

  481. Stream size : 28.5 KiB (0%)

  482. Title : European Spanish

  483. Language : Spanish

  484. Default : No

  485. Forced : No


  486. Text #29

  487. ID : 34

  488. Format : UTF-8

  489. Codec ID : S_TEXT/UTF8

  490. Codec ID/Info : UTF-8 Plain Text

  491. Duration : 1 h 44 min

  492. Bit rate : 36 b/s

  493. Count of elements : 828

  494. Stream size : 27.8 KiB (0%)

  495. Title : Swedish

  496. Language : Swedish

  497. Default : No

  498. Forced : No


  499. Text #30

  500. ID : 35

  501. Format : UTF-8

  502. Codec ID : S_TEXT/UTF8

  503. Codec ID/Info : UTF-8 Plain Text

  504. Duration : 1 h 44 min

  505. Bit rate : 96 b/s

  506. Count of elements : 956

  507. Stream size : 73.9 KiB (0%)

  508. Title : Thai

  509. Language : Thai

  510. Default : No

  511. Forced : No


  512. Text #31

  513. ID : 36

  514. Format : UTF-8

  515. Codec ID : S_TEXT/UTF8

  516. Codec ID/Info : UTF-8 Plain Text

  517. Duration : 1 h 44 min

  518. Bit rate : 36 b/s

  519. Count of elements : 954

  520. Stream size : 27.7 KiB (0%)

  521. Title : Turkish

  522. Language : Turkish

  523. Default : No

  524. Forced : No


  525. Text #32

  526. ID : 37

  527. Format : UTF-8

  528. Codec ID : S_TEXT/UTF8

  529. Codec ID/Info : UTF-8 Plain Text

  530. Duration : 1 h 43 min

  531. Bit rate : 60 b/s

  532. Count of elements : 938

  533. Stream size : 45.8 KiB (0%)

  534. Title : Ukrainian

  535. Language : Ukrainian

  536. Default : No

  537. Forced : No


  538. Text #33

  539. ID : 38

  540. Format : UTF-8

  541. Codec ID : S_TEXT/UTF8

  542. Codec ID/Info : UTF-8 Plain Text

  543. Duration : 1 h 44 min

  544. Bit rate : 50 b/s

  545. Count of elements : 965

  546. Stream size : 38.6 KiB (0%)

  547. Title : Vietnamese

  548. Language : Vietnamese

  549. Default : No

  550. Forced : No







文件下载


除非特别注明,本文『铁血女王阿米娜:征战天下[中文字幕].Amina.2021.1080p.NF.WEB-DL.DDP5.1.x264-bt9527.cc 4.71GB』来源于互联网机器人自动抓取,非本站原创。 浮游电影网不对本文拥有版权,如有侵犯,请联系邮箱:fuyouu#yandex.com[#换成@]投诉。我们会在15个工作日内删除。 但烦请转载时请标明出处:“本文转载于『浮游电影网』,原文地址:https://www.fuyouu.com/18370.html

评论吧骚年!

发表你的见解   

昵称*

E-mail*(建议输入,以便收到博主回复的提示邮件)

验证码*

您可以使用eMule或eMule Mod(Windows)、aMule(Win、Linux、Mac)等软件下载eD2k链接。。
eMule收藏集(.emulecollection)文件是您选中的所有链接的列表文件。eMule可以直接下载它们。
按住SHIFT键选择可以选中多个选择框。
可用文件名和大小选择器来选择文件。
文件名选择器帮您根据文件名称或后缀来选择文件。不分大小写。
符号使用:
和:空格( )、+
不包含:-
或:|
转义:一对英文引号("");
匹配开头:^
匹配结尾:$
例如:
选中所有名称中包含有“eMule”或“0.49c”字眼,但不包含有“exe”字眼的:emule|0.49c -exe
选中所有名称的开头是“eMule”,结尾是“0.49c”的:^emule 0.49c$
选中所有名称中带有“eMule 0.49c”的(必须是“eMule 0.49c”,中间没有别的字符,不能是“eMule fake 0.49c”),需要转义:"emule 0.49c"
大小选择器帮您根据文件大小选择文件。