当前位置: 首页 >> 欧美电影 >> 一个小忙[简繁字幕].A.Simple.Favor.2018.BluRay.1080p.x265.10bit.DDP7.1.MNHD-bt9527.cc 8.07GB >> 正文

一个小忙[简繁字幕].A.Simple.Favor.2018.BluRay.1080p.x265.10bit.DDP7.1.MNHD-bt9527.cc 8.07GB

2021年11月16日 12:23:19     电影发布:来源于网络     电影分类:欧美电影     评论(0)    

一个小忙[简繁字幕].A.Simple.Favor.2018.BluRay.1080p.x265.10bit.DDP7.1.MNHD bt9527.cc 8.07GB 悬疑片 犯罪片 剧情片 欧美电影  第1张

◎译 名 一个小忙 / 简单帮个忙 / 举手之劳 / 失踪网红(台) / 小心帮忙(港)

◎片 名 A Simple Favor

◎年 代 2018

◎产 地 美国 / 加拿大

◎类 别 剧情 / 悬疑 / 犯罪

◎语 言 英语

◎上映日期 2018-09-14(美国)

◎IMDb链接 https://www.imdb.com/title/tt7040874/

◎豆瓣评分 7.2/10 (57990人评价)

◎豆瓣链接 https://movie.douban.com/subject/27072988/

◎片 长 117分钟

◎导 演 保罗·费格 Paul Feig (id:1049925)

◎编 剧 杰西卡·沙泽尔 Jessica Sharzer (id:1041672)

达塞·贝尔 Darcey Bell (id:1400848)

◎演 员 安娜·肯德里克 Anna Kendrick (id:1013789)

布蕾克·莱弗利 Blake Lively (id:1041026)

亨利·戈尔丁 Henry Golding (id:1392013)

伊恩·霍 Ian Ho (id:1400849)

乔舒亚·萨蒂尼 Joshua Satine (id:1400850)

格伦达·布拉甘扎 Glenda Braganza (id:1400851)

安德鲁·兰内斯 Andrew Rannells (id:1318690)

凯利·麦柯马克 Kelly McCormack (id:1400852)

阿帕纳·纳彻 Aparna Nancherla (id:1400853)

达斯汀·米利甘 Dustin Milligan (id:1022679)

丹妮埃拉·伯尔冈 Danielle Bourgon (id:1394634)

吉亚·桑德赫 Gia Sandhu (id:1406799)

鲁伯特·弗兰德 Rupert Friend (id:1027178)

诺林·古拉姆高斯 Noorin Gulamgaus (id:1388540)

巴希尔·萨拉赫丁 Bashir Salahuddin (id:1193271)

梅洛迪·约翰逊 Melody Johnson (id:1111352)

麦丽莎·奥尼尔 Melissa O'Neil (id:1226559)

埃里克·约翰逊 Eric Johnson (id:1104646)

琳达·卡德里尼 Linda Cardellini (id:1010545)

莎拉·贝克 Sarah Baker (id:1345613)

珍·斯马特 Jean Smart (id:1049541)

莱斯勒·唐纳森 Lesleh Donaldson (id:1087316)

克里斯·欧文斯 Chris Owens (id:1131565)

罗莎娜·斯科托 Rosanna Scotto (id:1142320)

多梅尼克·塞纳 Domenic Cina (id:1073261)

辛迪·戴 Cyndy Day (id:1384568)

帕蒂·哈里森 Patti Harrison (id:1450627)

西奥多·沙皮洛 Theodore Shapiro (id:1028276)

约翰·施瓦兹曼 John Schwartzman (id:1027646)

◎标 签 悬疑 / 女性 / 犯罪 / 美国 / 剧情 / 黑色幽默 / 2018 / 喜剧

◎简 介

斯蒂芬妮(安娜·肯德里克 Anna Kendrick 饰)是一位开朗而又乐观的单身母亲,同时也经营着自己的直播频道,她常常在网络上分享一些自己领悟到的人生道理,她独创的菜谱深受粉丝们的喜爱。一次偶然中,斯蒂芬妮邂逅了名为艾米丽(布蕾克·莱弗利 Blake Lively 饰)的女子,艾米丽看上去自信、富有、光鲜亮丽,她同自己身为大学教授的丈夫肖恩(亨利·戈尔丁 Henry Golding 饰)一起生活在一幢豪华的别墅里。

单纯的斯蒂芬妮很快就和艾米丽之间建立了深厚的友谊,两人成为了无话不谈的好友。然而有一天,艾米丽带着斯蒂芬妮的儿子失踪了,当身为丈夫的肖恩对妻子的失踪提供不了任何有价值的帮助时,斯蒂芬妮决定自己出马寻找两人的下落。

  1. ##### MediaInfo ######

  2. General

  3. Unique ID : 258872618475418395445442295961269418654 (0xC2C10D825BF6D14D2E935D1FACC1BA9E)

  4. Complete name : [email protected]QDDQ.COM.mkv

  5. Format : Matroska

  6. Format version : Version 4

  7. File size : 8.07 GiB

  8. Duration : 1 h 56 min

  9. Overall bit rate : 9 889 kb/s

  10. Movie name : A Simple Favor 2018 BluRay - FRDS

  11. Encoded date : UTC 2021-11-15 08:07:55

  12. Writing application : mkvmerge v62.0.0 ('Apollo') 64-bit

  13. Writing library : libebml v1.4.2 + libmatroska v1.6.4


  14. Video

  15. ID : 1

  16. Format : HEVC

  17. Format/Info : High Efficiency Video Coding

  18. Format profile : Main [email protected]@High

  19. Codec ID : V_MPEGH/ISO/HEVC

  20. Duration : 1 h 56 min

  21. Bit rate : 7 939 kb/s

  22. Width : 1 920 pixels

  23. Height : 960 pixels

  24. Display aspect ratio : 2.000

  25. Frame rate mode : Constant

  26. Frame rate : 23.976 (24000/1001/53354) FPS

  27. Color space : YUV

  28. Chroma subsampling : 4:2:0

  29. Bit depth : 10 bits

  30. Bits/(Pixel*Frame) : 0.180

  31. Stream size : 6.48 GiB (80%)

  32. Writing library : x265 3.5+19-8003e4382:[Windows][MSVC 1929][64 bit] 10bit

  33. Encoding settings : cpuid=533541111039 / frame-threads=4 / numa-pools=16 / wpp / pmode / no-pme / no-psnr / no-ssim / log-level=2 / input-csp=1 / input-res=1920x960 / interlace=0 / total-frames=168073 / level-idc=0 / high-tier=1 / uhd-bd=0 / ref=6 / no-allow-non-conformance / no-repeat-headers / annexb / no-aud / no-eob / no-eos / no-hrd / info / hash=0 / no-temporal-layers / no-open-gop / min-keyint=1 / keyint=250 / gop-lookahead=0 / bframes=8 / b-adapt=2 / b-pyramid / bframe-bias=0 / rc-lookahead=100 / lookahead-slices=0 / NTMzNTQ=uuDQuD2mJt9fsCf / scenecut=40 / no-hist-scenecut / radl=0 / no-splice / no-intra-refresh / ctu=32 / min-cu-size=8 / no-rect / no-amp / max-tu-size=32 / tu-inter-depth=4 / tu-intra-depth=4 / limit-tu=0 / rdoq-level=2 / dynamic-rd=0.00 / no-ssim-rd / signhide / tskip / nr-intra=0 / nr-inter=0 / no-constrained-intra / strong-intra-smoothing / max-merge=5 / limit-refs=0 / no-limit-modes / me=3 / subme=7 / merange=57 / temporal-mvp / no-frame-dup / no-hme / weightp / weightb / no-analyze-src-pics / deblock=-3:-3 / no-sao / no-sao-non-deblock / rd=4 / selective-sao=0 / no-early-skip / no-rskip / no-fast-intra / no-tskip-fast / no-cu-lossless / b-intra / no-splitrd-skip / rdpenalty=0 / psy-rd=1.50 / psy-rdoq=1.00 / no-rd-refine / no-lossless / cbqpoffs=-2 / crqpoffs=-2 / rc=crf / crf=19.0 / qcomp=0.65 / qpstep=4 / stats-write=0 / stats-read=0 / vbv-maxrate=160000 / vbv-bufsize=160000 / vbv-init=0.9 / min-vbv-fullness=50.0 / max-vbv-fullness=80.0 / crf-max=0.0 / crf-min=0.0 / ipratio=1.30 / pbratio=1.20 / aq-mode=1 / aq-strength=1.00 / no-cutree / zone-count=0 / no-strict-cbr / qg-size=8 / no-rc-grain / qpmax=69 / qpmin=0 / no-const-vbv / sar=0 / overscan=0 / videoformat=5 / range=0 / colorprim=1 / transfer=1 / colormatrix=1 / chromaloc=0 / display-window=0 / cll=0,0 / min-luma=0 / max-luma=1023 / log2-max-poc-lsb=8 / vui-timing-info / vui-hrd-info / slices=1 / no-opt-qp-pps / no-opt-ref-list-length-pps / no-multi-pass-opt-rps / scenecut-bias=0.05 / hist-threshold=0.03 / no-opt-cu-delta-qp / no-aq-motion / no-hdr10 / no-hdr10-opt / no-dhdr10-opt / no-idr-recovery-sei / analysis-reuse-level=0 / analysis-save-reuse-level=0 / analysis-load-reuse-level=0 / scale-factor=0 / refine-intra=0 / refine-inter=0 / refine-mv=1 / refine-ctu-distortion=0 / no-limit-sao / ctu-info=0 / no-lowpass-dct / refine-analysis-type=0 / copy-pic=1 / max-ausize-factor=1.0 / no-dynamic-refine / no-single-sei / no-hevc-aq / no-svt / no-field / qp-adaptation-range=1.00 / scenecut-aware-qp=0conformance-window-offsets / right=0 / bottom=0 / NTMzNTQ= / decoder-max-rate=0 / no-vbv-live-multi-pass

  34. Default : Yes

  35. Forced : No

  36. Color range : Limited

  37. Color primaries : BT.709

  38. Transfer characteristics : BT.709

  39. Matrix coefficients : BT.709


  40. Audio #1

  41. ID : 2

  42. Format : E-AC-3

  43. Format/Info : Enhanced AC-3

  44. Commercial name : Dolby Digital Plus

  45. Format profile : Blu-ray Disc

  46. Codec ID : A_EAC3

  47. Duration : 1 h 56 min

  48. Bit rate mode : Constant

  49. Bit rate : 1 536 kb/s

  50. Channel(s) : 8 channels

  51. Channel layout : L R C LFE Ls Rs Lb Rb

  52. Sampling rate : 48.0 kHz

  53. Frame rate : 31.250 FPS (1536 SPF)

  54. Compression mode : Lossy

  55. Stream size : 1.25 GiB (16%)

  56. Language : English

  57. Service kind : Complete Main

  58. Default : Yes

  59. Forced : No


  60. Audio #2

  61. ID : 3

  62. Format : AAC LC

  63. Format/Info : Advanced Audio Codec Low Complexity

  64. Codec ID : A_AAC-2

  65. Duration : 1 h 56 min

  66. Bit rate : 92.3 kb/s

  67. Channel(s) : 2 channels

  68. Channel layout : L R

  69. Sampling rate : 48.0 kHz

  70. Frame rate : 46.875 FPS (1024 SPF)

  71. Compression mode : Lossy

  72. Delay relative to video : 20 ms

  73. Stream size : 77.2 MiB (1%)

  74. Title : Commentary with director Paul Feig

  75. Language : English

  76. Default : No

  77. Forced : No


  78. Audio #3

  79. ID : 4

  80. Format : AAC LC

  81. Format/Info : Advanced Audio Codec Low Complexity

  82. Codec ID : A_AAC-2

  83. Duration : 1 h 56 min

  84. Bit rate : 86.4 kb/s

  85. Channel(s) : 2 channels

  86. Channel layout : L R

  87. Sampling rate : 48.0 kHz

  88. Frame rate : 46.875 FPS (1024 SPF)

  89. Compression mode : Lossy

  90. Delay relative to video : 20 ms

  91. Stream size : 72.2 MiB (1%)

  92. Title : Commentary with director Paul Feig and actors Anna Kendrick, Blake Lively, Jean Smart and Bashir Salahuddin

  93. Language : English

  94. Default : No

  95. Forced : No


  96. Audio #4

  97. ID : 5

  98. Format : AAC LC

  99. Format/Info : Advanced Audio Codec Low Complexity

  100. Codec ID : A_AAC-2

  101. Duration : 1 h 56 min

  102. Bit rate : 88.7 kb/s

  103. Channel(s) : 2 channels

  104. Channel layout : L R

  105. Sampling rate : 48.0 kHz

  106. Frame rate : 46.875 FPS (1024 SPF)

  107. Compression mode : Lossy

  108. Delay relative to video : 20 ms

  109. Stream size : 74.1 MiB (1%)

  110. Title : Commentary with director Paul Feig, writer Jessica Sharzer, producer Jessie Henderson, cinematographer Jonathan Schwartzman & costume designer Renee Ehrich Kalfus

  111. Language : English

  112. Default : No

  113. Forced : No


  114. Text #1

  115. ID : 6

  116. Format : UTF-8

  117. Codec ID : S_TEXT/UTF8

  118. Codec ID/Info : UTF-8 Plain Text

  119. Duration : 1 h 50 min

  120. Bit rate : 90 b/s

  121. Count of elements : 2088

  122. Stream size : 73.1 KiB (0%)

  123. Language : English

  124. Default : No

  125. Forced : No


  126. Text #2

  127. ID : 7

  128. Format : UTF-8

  129. Codec ID : S_TEXT/UTF8

  130. Codec ID/Info : UTF-8 Plain Text

  131. Duration : 1 h 50 min

  132. Bit rate : 96 b/s

  133. Count of elements : 2184

  134. Stream size : 77.8 KiB (0%)

  135. Title : SDH

  136. Language : English

  137. Default : No

  138. Forced : No


  139. Text #3

  140. ID : 8

  141. Format : PGS

  142. Muxing mode : zlib

  143. Codec ID : S_HDMV/PGS

  144. Codec ID/Info : Picture based subtitle format used on BDs/HD-DVDs

  145. Duration : 1 h 56 min

  146. Bit rate : 70.1 kb/s

  147. Count of elements : 4106

  148. Stream size : 58.5 MiB (1%)

  149. Language : French

  150. Default : No

  151. Forced : No


  152. Text #4

  153. ID : 9

  154. Format : PGS

  155. Muxing mode : zlib

  156. Codec ID : S_HDMV/PGS

  157. Codec ID/Info : Picture based subtitle format used on BDs/HD-DVDs

  158. Duration : 1 h 50 min

  159. Bit rate : 68.6 kb/s

  160. Count of elements : 3040

  161. Stream size : 54.0 MiB (1%)

  162. Title : 中英

  163. Language : Chinese

  164. Default : Yes

  165. Forced : No


  166. Text #5

  167. ID : 10

  168. Format : PGS

  169. Muxing mode : zlib

  170. Codec ID : S_HDMV/PGS

  171. Codec ID/Info : Picture based subtitle format used on BDs/HD-DVDs

  172. Duration : 1 h 50 min

  173. Bit rate : 71.1 kb/s

  174. Count of elements : 3040

  175. Stream size : 56.0 MiB (1%)

  176. Title : 繁英

  177. Language : Chinese

  178. Default : Yes

  179. Forced : No


  180. Text #6

  181. ID : 11

  182. Format : PGS

  183. Muxing mode : zlib

  184. Codec ID : S_HDMV/PGS

  185. Codec ID/Info : Picture based subtitle format used on BDs/HD-DVDs

  186. Duration : 1 h 50 min

  187. Bit rate : 43.6 kb/s

  188. Count of elements : 3038

  189. Stream size : 34.4 MiB (0%)

  190. Title : 简中

  191. Language : Chinese

  192. Default : No

  193. Forced : No


  194. Text #7

  195. ID : 12

  196. Format : PGS

  197. Muxing mode : zlib

  198. Codec ID : S_HDMV/PGS

  199. Codec ID/Info : Picture based subtitle format used on BDs/HD-DVDs

  200. Duration : 1 h 50 min

  201. Bit rate : 46.6 kb/s

  202. Count of elements : 3038

  203. Stream size : 36.7 MiB (0%)

  204. Title : 繁中

  205. Language : Chinese

  206. Default : No

  207. Forced : No


  208. Menu

  209. 00:00:00.000 : en:Chapter 01

  210. 00:06:33.893 : en:Chapter 02

  211. 00:13:55.752 : en:Chapter 03

  212. 00:23:11.056 : en:Chapter 04

  213. 00:29:20.133 : en:Chapter 05

  214. 00:36:02.827 : en:Chapter 06

  215. 00:41:57.432 : en:Chapter 07

  216. 00:53:06.183 : en:Chapter 08

  217. 01:00:35.674 : en:Chapter 09

  218. 01:05:24.087 : en:Chapter 10

  219. 01:12:52.618 : en:Chapter 11

  220. 01:20:04.508 : en:Chapter 12

  221. 01:27:31.830 : en:Chapter 13

  222. 01:37:34.182 : en:Chapter 14

  223. 01:41:52.565 : en:Chapter 15

  224. 01:50:20.489 : en:Chapter 16




复制代码



文件下载


除非特别注明,本文『一个小忙[简繁字幕].A.Simple.Favor.2018.BluRay.1080p.x265.10bit.DDP7.1.MNHD-bt9527.cc 8.07GB』来源于互联网机器人自动抓取,非本站原创。 浮游电影网不对本文拥有版权,如有侵犯,请联系邮箱:fuyouu#yandex.com[#换成@]投诉。我们会在15个工作日内删除。 但烦请转载时请标明出处:“本文转载于『浮游电影网』,原文地址:https://www.fuyouu.com/18369.html

评论吧骚年!

发表你的见解   

昵称*

E-mail*(建议输入,以便收到博主回复的提示邮件)

验证码*

您可以使用eMule或eMule Mod(Windows)、aMule(Win、Linux、Mac)等软件下载eD2k链接。。
eMule收藏集(.emulecollection)文件是您选中的所有链接的列表文件。eMule可以直接下载它们。
按住SHIFT键选择可以选中多个选择框。
可用文件名和大小选择器来选择文件。
文件名选择器帮您根据文件名称或后缀来选择文件。不分大小写。
符号使用:
和:空格( )、+
不包含:-
或:|
转义:一对英文引号("");
匹配开头:^
匹配结尾:$
例如:
选中所有名称中包含有“eMule”或“0.49c”字眼,但不包含有“exe”字眼的:emule|0.49c -exe
选中所有名称的开头是“eMule”,结尾是“0.49c”的:^emule 0.49c$
选中所有名称中带有“eMule 0.49c”的(必须是“eMule 0.49c”,中间没有别的字符,不能是“eMule fake 0.49c”),需要转义:"emule 0.49c"
大小选择器帮您根据文件大小选择文件。