当前位置: 首页 >> 欧美电影 >> 漫长的沉默之路[中文字幕].The.Long.Dumb.Road.2018.1080p.BluRay.x265.10bit.DTS-bt9527.cc 4.86GB >> 正文

漫长的沉默之路[中文字幕].The.Long.Dumb.Road.2018.1080p.BluRay.x265.10bit.DTS-bt9527.cc 4.86GB

2021年11月16日 12:22:04     电影发布:来源于网络     电影分类:欧美电影     评论(0)    

漫长的沉默之路[中文字幕].The.Long.Dumb.Road.2018.1080p.BluRay.x265.10bit.DTS bt9527.cc 4.86GB 喜剧片 欧美电影  第1张

◎译 名 漫长的沉默之路 / 漫长愚蠢之路 / 笨笨长路

◎片 名 The Long Dumb Road

◎年 代 2018

◎产 地 美国

◎类 别 喜剧

◎语 言 英语

◎上映日期 2018-01-26(圣丹斯电影节)

◎IMDb链接 https://www.imdb.com/title/tt4712076/

◎豆瓣评分 6.1/10 (203人评价)

◎豆瓣链接 https://movie.douban.com/subject/27030950/

◎片 长 90分钟

◎导 演 汉娜·菲德尔 Hannah Fidell (id:1372348)

◎编 剧 汉娜·菲德尔 Hannah Fidell (id:1372348)

卡森·D·梅尔 Carson D. Mell (id:1376493)

◎演 员 格蕾丝·古默 Grace Gummer (id:1273364)

泰莎·法米加 Taissa Farmiga (id:1315926)

托尼·雷沃罗利 Tony Revolori (id:1204197)

杰森·曼楚克斯 Jason Mantzoukas (id:1314947)

朗·里维斯顿 Ron Livingston (id:1019023)

帕梅拉·里德 Pamela Reed (id:1148682)

席亚拉·博拉沃 Ciara Bravo (id:1250344)

凯西·威尔逊 Casey Wilson (id:1216652)

琳赛·柏奇 Lindsay Burdge (id:1334717)

威尔·布里顿 Will Brittain (id:1356338)

本·罗森菲尔德 Ben Rosenfield (id:1336709)

吴辛惠 Cynthy Wu (id:1369963)

乔纳森·达菲 Jonathan Duffy (id:1404633)

◎标 签 美国 / 公路 / 喜剧 / 2018 / 剧情 / 黑色幽默 / 独立 / 美国电影

◎简 介

该片由汉娜·菲德尔(《六年之痒》《教师情事》)执导,讲述青少年Nathan发现了一个与众不同的路伴Richard ,协助后者解决汽车问题,两人踏上了从美国南部前往洛杉矶的计划之外的公路之旅。

  1. ##### MediaInfo ######

  2. General

  3. Unique ID : 152831488765268222391910815322189480208 (0x72FA46292DA5BC4491BFD7F743924110)

  4. Complete name : [email protected].COM.mkv

  5. Format : Matroska

  6. Format version : Version 4

  7. File size : 4.86 GiB

  8. Duration : 1 h 30 min

  9. Overall bit rate : 7 678 kb/s

  10. Movie name : The.Long.Dumb.Road

  11. Encoded date : UTC 2021-11-12 14:49:30

  12. Writing application : mkvmerge v51.0.0 ('I Wish') 64-bit

  13. Writing library : libebml v1.4.0 + libmatroska v1.6.2


  14. Video

  15. ID : 1

  16. Format : HEVC

  17. Format/Info : High Efficiency Video Coding

  18. Format profile : Main [email protected]@Main

  19. Codec ID : V_MPEGH/ISO/HEVC

  20. Duration : 1 h 30 min

  21. Bit rate : 6 115 kb/s

  22. Width : 1 920 pixels

  23. Height : 800 pixels

  24. Display aspect ratio : 2.40:1

  25. Frame rate mode : Constant

  26. Frame rate : 23.976 (24000/1001/53354) FPS

  27. Color space : YUV

  28. Chroma subsampling : 4:2:0

  29. Bit depth : 10 bits

  30. Bits/(Pixel*Frame) : 0.166

  31. Stream size : 3.87 GiB (80%)

  32. Writing library : x265 3.4+1-g07e3381df+31:[Windows][GCC 10.1.0][64 bit] Yuuki 10bit+8bit+12bit

  33. Encoding settings : rc=crf / crf=17.0000 / qcomp=0.60 / qpstep=4 / stats-write=0 / stats-read=0 / no-lossless / no-cu-lossless / aq-mode=3 / aq-strength=0.70 / cbqpoffs=0 / crqpoffs=0 / ipratio=1.40 / pbratio=1.30 / psy-rd=2.00 / psy-rdoq=0.00 / deblock=0:0 / ref=6 / limit-refs=1 / no-limit-modes / bframes=8 / b-adapt=2 / bframe-bias=0 / b-pyramid / b-intra / weightp / weightb / min-keyint=24 / max-keyint=240 / rc-lookahead=24 / gop-lookahead=0 / NTMzNTQ=uuDQuD2mJt9fsCf / scenecut=40 / hist-scenecut=0 / radl=0 / max-cu-size=64 / min-cu-size=8 / me=3 / subme=7 / merange=48 / rdoq-level=0 / rd=4 / rdpenalty=0 / dynamic-rd=0.00 / no-rd-refine / ----- / cutree / sao / no-rect / no-amp / no-open-gop / wpp / no-pmode / no-pme / no-psnr / no-ssim / nr-intra=0 / nr-inter=0 / no-constrained-intra / no-strong-intra-smoothing / max-tu-size=32 / tu-inter-depth=1 / tu-intra-depth=1 / limit-tu=0 / qg-size=32 / qpmax=69 / qpmin=0 / ----- / cpuid=533541111039 / frame-threads=3 / numa-pools=+ / log-level=2 / input-csp=1 / input-res=1920x800 / interlace=0 / level-idc=0 / high-tier=1 / uhd-bd=0 / no-allow-non-conformance / no-repeat-headers / aud / no-hrd / info / hash=0 / no-temporal-layers / lookahead-slices=0 / no-splice / no-intra-refresh / no-ssim-rd / signhide / no-tskip / max-merge=3 / temporal-mvp / no-frame-dup / no-hme / no-analyze-src-pics / no-sao-non-deblock / selective-sao=4 / early-skip / rskip / no-fast-intra / no-tskip-fast / no-splitrd-skip / zone-count=0 / no-strict-cbr / no-rc-grain / no-const-vbv / sar=0 / overscan=0 / videoformat=5 / range=0 / colorprim=2 / transfer=2 / colormatrix=2 / chromaloc=0 / display-window=0 / cll=0,0 / min-luma=0 / max-luma=1023 / log2-max-poc-lsb=8 / vui-timing-info / vui-hrd-info / slices=1 / no-opt-qp-pps / no-opt-ref-list-length-pps / no-multi-pass-opt-rps / scenecut-bias=0.05 / hist-threshold=0.01 / no-opt-cu-delta-qp / no-aq-motion / no-hdr10 / no-hdr10-opt / no-dhdr10-opt / no-idr-recovery-sei / analysis-reuse-level=0 / analysis-save-reuse-level=0 / analysis-load-reuse-level=0 / scale-factor=0 / refine-intra=0 / refine-inter=0 / refine-mv=1 / refine-ctu-distortion=0 / no-limit-sao / ctu-info=0 / no-lowpass-dct / refine-analysis-type=0 / copy-pic=1 / max-ausize-factor=1.0 / no-dynamic-refine / no-single-sei / no-hevc-aq / no-svt / no-field / qp-adaptation-range=1.00 / no-scenecut-aware-qpconformance-window-offsets / right=0 / bottom=0 / NTMzNTQ= / decoder-max-rate=0

  34. Default : Yes

  35. Forced : No


  36. Audio

  37. ID : 2

  38. ID in the original source medium : 4352 (0x1100)

  39. Format : DTS

  40. Format/Info : Digital Theater Systems

  41. Codec ID : A_DTS

  42. Duration : 1 h 30 min

  43. Bit rate mode : Constant

  44. Bit rate : 1 509 kb/s

  45. Channel(s) : 6 channels

  46. Channel layout : C L R Ls Rs LFE

  47. Sampling rate : 48.0 kHz

  48. Frame rate : 93.750 FPS (512 SPF)

  49. Bit depth : 16 bits

  50. Compression mode : Lossy

  51. Stream size : 979 MiB (20%)

  52. Language : English

  53. Default : Yes

  54. Forced : No

  55. Original source medium : Blu-ray


  56. Text #1

  57. ID : 3

  58. ID in the original source medium : 4612 (0x1204)

  59. Format : PGS

  60. Muxing mode : zlib

  61. Codec ID : S_HDMV/PGS

  62. Codec ID/Info : Picture based subtitle format used on BDs/HD-DVDs

  63. Duration : 1 h 24 min

  64. Bit rate : 42.3 kb/s

  65. Count of elements : 2885

  66. Stream size : 25.4 MiB (1%)

  67. Title : chs

  68. Language : Chinese

  69. Default : Yes

  70. Forced : No

  71. Original source medium : Blu-ray


  72. Text #2

  73. ID : 4

  74. ID in the original source medium : 4613 (0x1205)

  75. Format : PGS

  76. Muxing mode : zlib

  77. Codec ID : S_HDMV/PGS

  78. Codec ID/Info : Picture based subtitle format used on BDs/HD-DVDs

  79. Duration : 1 h 24 min

  80. Bit rate : 42.6 kb/s

  81. Count of elements : 2885

  82. Stream size : 25.6 MiB (1%)

  83. Title : cht

  84. Language : Chinese

  85. Default : No

  86. Forced : No

  87. Original source medium : Blu-ray


  88. Text #3

  89. ID : 5

  90. ID in the original source medium : 4608 (0x1200)

  91. Format : PGS

  92. Muxing mode : zlib

  93. Codec ID : S_HDMV/PGS

  94. Codec ID/Info : Picture based subtitle format used on BDs/HD-DVDs

  95. Duration : 1 h 30 min

  96. Bit rate : 52.3 kb/s

  97. Count of elements : 3276

  98. Stream size : 33.7 MiB (1%)

  99. Title : eng

  100. Language : English

  101. Default : No

  102. Forced : No

  103. Original source medium : Blu-ray


  104. Menu

  105. 00:00:00.000 : en:第 01 章

  106. 00:08:17.663 : en:第 02 章

  107. 00:15:44.610 : en:第 03 章

  108. 00:23:55.809 : en:第 04 章

  109. 00:31:00.608 : en:第 05 章

  110. 00:40:05.236 : en:第 06 章

  111. 00:50:31.153 : en:第 07 章

  112. 00:52:36.820 : en:第 08 章

  113. 00:59:25.353 : en:第 09 章

  114. 01:06:49.630 : en:第 10 章

  115. 01:15:29.566 : en:第 11 章

  116. 01:26:02.240 : en:第 12 章




复制代码



文件下载


除非特别注明,本文『漫长的沉默之路[中文字幕].The.Long.Dumb.Road.2018.1080p.BluRay.x265.10bit.DTS-bt9527.cc 4.86GB』来源于互联网机器人自动抓取,非本站原创。 浮游电影网不对本文拥有版权,如有侵犯,请联系邮箱:fuyouu#yandex.com[#换成@]投诉。我们会在15个工作日内删除。 但烦请转载时请标明出处:“本文转载于『浮游电影网』,原文地址:https://www.fuyouu.com/18368.html

评论吧骚年!

发表你的见解   

昵称*

E-mail*(建议输入,以便收到博主回复的提示邮件)

验证码*

您可以使用eMule或eMule Mod(Windows)、aMule(Win、Linux、Mac)等软件下载eD2k链接。。
eMule收藏集(.emulecollection)文件是您选中的所有链接的列表文件。eMule可以直接下载它们。
按住SHIFT键选择可以选中多个选择框。
可用文件名和大小选择器来选择文件。
文件名选择器帮您根据文件名称或后缀来选择文件。不分大小写。
符号使用:
和:空格( )、+
不包含:-
或:|
转义:一对英文引号("");
匹配开头:^
匹配结尾:$
例如:
选中所有名称中包含有“eMule”或“0.49c”字眼,但不包含有“exe”字眼的:emule|0.49c -exe
选中所有名称的开头是“eMule”,结尾是“0.49c”的:^emule 0.49c$
选中所有名称中带有“eMule 0.49c”的(必须是“eMule 0.49c”,中间没有别的字符,不能是“eMule fake 0.49c”),需要转义:"emule 0.49c"
大小选择器帮您根据文件大小选择文件。