当前位置: 首页 >> 欧美电影 >> 黑狱杀人王[中文字幕].He.Walked.by.Night.1948.1080p.BluRay.DTS.x265-10bit-bt9527.cc 6.51GB >> 正文

黑狱杀人王[中文字幕].He.Walked.by.Night.1948.1080p.BluRay.DTS.x265-10bit-bt9527.cc 6.51GB

2021年11月16日 12:14:24     电影发布:来源于网络     电影分类:欧美电影     评论(0)    

黑狱杀人王[中文字幕].He.Walked.by.Night.1948.1080p.BluRay.DTS.x265 10bit bt9527.cc 6.51GB 黑色电影 悬疑片 犯罪片 惊悚片 剧情片 欧美电影  第1张

◎译 名 黑狱杀人王 / 夜行者

◎片 名 He Walked by Night

◎年 代 1948

◎产 地 美国

◎类 别 剧情 / 悬疑 / 惊悚 / 犯罪 / 黑色电影

◎语 言 英语 / 西班牙语

◎上映日期 1948-11-24

◎IMDb链接 https://www.imdb.com/title/tt0040427/

◎豆瓣评分 7.3/10 (181人评价)

◎豆瓣链接 https://movie.douban.com/subject/1296435/

◎片 长 79 分钟

◎导 演 阿尔弗雷德·L·韦尔克 Alfred L. Werker (id:1037375)

安东尼·曼 Anthony Mann (id:1009612)

◎编 剧 克兰·威尔伯 Crane Wilbur (id:1041842)

约翰·C. 希金斯 John C. Higgins (id:1046517)

哈里·埃塞克斯 Harry Essex (id:1037921)

◎演 员 理查德·贝斯哈特 Richard Basehart (id:1049800)

斯科特·布兰迪 Scott Brady (id:1049977)

罗伊·罗伯茨 Roy Roberts (id:1032406)

Donald Kerr Donald Kerr (id:1111908)

约翰·麦圭尔 John McGuire (id:1120469)

查尔斯梅瑞狄斯 Charles Meredith (id:1114917)

Virginia Hunter Virginia Hunter (id:1114268)

Charles Lang Charles Lang (id:1106813)

Lyle Latell Lyle Latell (id:1114246)

Anthony Jochim Anthony Jochim (id:1108261)

Rory Mallinson Rory Mallinson (id:1123733)

James Nolan James Nolan (id:1133664)

伯特·穆尔豪斯 Bert Moorhouse (id:1135738)

Billy Mauch Billy Mauch (id:1123058)

Harlan Warde Harlan Warde (id:1168758)

罗伯特威廉姆斯 Robert Williams (id:1166136)

哈里·威尔逊 Harry Wilson (id:1163554)

肯尼斯·托比 Kenneth Tobey (id:1156906)

Wally Vernon Wally Vernon (id:1153856)

Earl Spainard Earl Spainard (id:1152896)

Ruth Robinson Ruth Robinson (id:1139048)

史蒂夫·彭德尔顿 Steve Pendleton (id:1135767)

Tim Graham Tim Graham (id:1098418)

托马斯·布朗·亨利 Thomas Browne Henry (id:1098123)

怀特·毕塞尔 Whit Bissell (id:1055745)

Paul Scardon Paul Scardon (id:1048593)

Tommy Kelly Tommy Kelly (id:1001092)

约翰·德纳 John Dehner (id:1036611)

安·多兰 Ann Doran (id:1022602)

George Chan George Chan (id:1016108)

Carlotta Monti Carlotta Monti (id:1004803)

简·亚当斯 Jane Adams (id:1058007)

杰克·贝利 Jack Bailey (id:1059475)

Reed Hadley Reed Hadley (id:1098013)

哈利·哈维 Harry Harvey (id:1097041)

Kit Guard Kit Guard (id:1093954)

拜伦·弗格 Byron Foulger (id:1079933)

Rex Downing Rex Downing (id:1079916)

詹姆斯·卡德韦尔 James Cardwell (id:1076820)

弗兰克·卡迪 Frank Cady (id:1072845)

罗伯特·拜斯 Robert Bice (id:1066273)

阿尔玛·贝特兰 Alma Beltran (id:1062519)

多萝西·亚当斯 Dorothy Adams (id:1060640)

杰克·韦伯 Jack Webb (id:1002810)

布莱恩·福伊 Bryan Foy (id:1037738)

Robert Kane Robert Kane (id:1103311)

Leonid Raab Leonid Raab (id:1001738)

约翰·奥尔顿 John Alton (id:1028327)

Alfred DeGaetano Alfred DeGaetano (id:1039535)

爱德华L.Ilou Edward L. Ilou (id:1026282)

Clarence Steensen Clarence Steensen (id:1151753)

Ern Westmore Ern Westmore (id:1168797)

霍华德·W·科克 Howard W. Koch (id:1003503)

◎标 签 美国 / 黑色电影 / 犯罪 / 安东尼·曼 / 黑白 / 1940s / 1948 / Film-Noir

◎简 介

In the Post-World War II, in Los Angeles, a criminal shots and kills a police officer in the middle of the night. Without any leads, the chief of the LAPD assigns Sgt. Chuck Jones and Sgt. Marty Brennan to investigate the murder and apprehend the culprits. When the dealer of electronics devices, Paul Reeves, is caught selling a stolen projector, the police identifies the crimin...

  1. ##### MediaInfo ######

  2. General

  3. Unique ID : 129662217591692702021850557208818700037 (0x618C08E57A405480A1DB880AA6BD4F05)

  4. Complete name : [email protected].COM.mkv

  5. Format : Matroska

  6. Format version : Version 4

  7. File size : 6.51 GiB

  8. Duration : 1 h 18 min

  9. Overall bit rate : 11.8 Mb/s

  10. Movie name : He Walked by Night 1948 1080p BluRay DTS [email protected]

  11. Encoded date : UTC 2021-11-15 00:03:21

  12. Writing application : mkvmerge v38.0.0 ('The Silent Type') 64-bit

  13. Writing library : libebml v1.3.9 + libmatroska v1.5.2


  14. Video

  15. ID : 1

  16. Format : HEVC

  17. Format/Info : High Efficiency Video Coding

  18. Format profile : Main [email protected]@High

  19. Codec ID : V_MPEGH/ISO/HEVC

  20. Duration : 1 h 18 min

  21. Bit rate : 10.3 Mb/s

  22. Width : 1 480 pixels

  23. Height : 1 080 pixels

  24. Display aspect ratio : 1.370

  25. Frame rate mode : Constant

  26. Frame rate : 23.976 (24000/1001/53354) FPS

  27. Color space : YUV

  28. Chroma subsampling : 4:2:0

  29. Bit depth : 10 bits

  30. Bits/(Pixel*Frame) : 0.268

  31. Stream size : 5.66 GiB (87%)

  32. Title : @HDSky

  33. Writing library : x265 - H.265/HEVC codec

  34. Default : Yes

  35. Forced : No


  36. Audio

  37. ID : 2

  38. Format : DTS

  39. Format/Info : Digital Theater Systems

  40. Codec ID : A_DTS

  41. Duration : 1 h 18 min

  42. Bit rate mode : Constant

  43. Bit rate : 1 509 kb/s

  44. Channel(s) : 2 channels

  45. Channel layout : L R

  46. Sampling rate : 48.0 kHz

  47. Frame rate : 93.750 FPS (512 SPF)

  48. Bit depth : 24 bits

  49. Compression mode : Lossy

  50. Stream size : 852 MiB (13%)

  51. Title : English

  52. Language : English

  53. Default : Yes

  54. Forced : No


  55. Text #1

  56. ID : 3

  57. Format : PGS

  58. Muxing mode : zlib

  59. Codec ID : S_HDMV/PGS

  60. Codec ID/Info : Picture based subtitle format used on BDs/HD-DVDs

  61. Duration : 1 h 16 min

  62. Bit rate : 25.1 kb/s

  63. Count of elements : 1547

  64. Stream size : 13.7 MiB (0%)

  65. Title : CHS

  66. Language : Chinese

  67. Default : Yes

  68. Forced : No


  69. Text #2

  70. ID : 4

  71. Format : PGS

  72. Muxing mode : zlib

  73. Codec ID : S_HDMV/PGS

  74. Codec ID/Info : Picture based subtitle format used on BDs/HD-DVDs

  75. Duration : 1 h 16 min

  76. Bit rate : 26.0 kb/s

  77. Count of elements : 1547

  78. Stream size : 14.2 MiB (0%)

  79. Title : CHT

  80. Language : Chinese

  81. Default : No

  82. Forced : No


  83. Menu

  84. 00:00:00.000 : en:Chapter 01

  85. 00:01:21.206 : en:Chapter 02

  86. 00:06:04.573 : en:Chapter 03

  87. 00:14:27.533 : en:Chapter 04

  88. 00:19:11.942 : en:Chapter 05

  89. 00:21:15.441 : en:Chapter 06

  90. 00:24:22.044 : en:Chapter 07

  91. 00:25:54.720 : en:Chapter 08

  92. 00:28:29.291 : en:Chapter 09

  93. 00:32:20.939 : en:Chapter 10

  94. 00:34:22.477 : en:Chapter 11

  95. 00:37:36.921 : en:Chapter 12

  96. 00:38:54.749 : en:Chapter 13

  97. 00:46:32.957 : en:Chapter 14

  98. 00:52:57.800 : en:Chapter 15

  99. 00:57:21.563 : en:Chapter 16

  100. 01:00:05.477 : en:Chapter 17

  101. 01:03:44.571 : en:Chapter 18

  102. 01:11:18.065 : en:Chapter 19




复制代码



文件下载


除非特别注明,本文『黑狱杀人王[中文字幕].He.Walked.by.Night.1948.1080p.BluRay.DTS.x265-10bit-bt9527.cc 6.51GB』来源于互联网机器人自动抓取,非本站原创。 浮游电影网不对本文拥有版权,如有侵犯,请联系邮箱:fuyouu#yandex.com[#换成@]投诉。我们会在15个工作日内删除。 但烦请转载时请标明出处:“本文转载于『浮游电影网』,原文地址:https://www.fuyouu.com/18362.html

评论吧骚年!

发表你的见解   

昵称*

E-mail*(建议输入,以便收到博主回复的提示邮件)

验证码*

您可以使用eMule或eMule Mod(Windows)、aMule(Win、Linux、Mac)等软件下载eD2k链接。。
eMule收藏集(.emulecollection)文件是您选中的所有链接的列表文件。eMule可以直接下载它们。
按住SHIFT键选择可以选中多个选择框。
可用文件名和大小选择器来选择文件。
文件名选择器帮您根据文件名称或后缀来选择文件。不分大小写。
符号使用:
和:空格( )、+
不包含:-
或:|
转义:一对英文引号("");
匹配开头:^
匹配结尾:$
例如:
选中所有名称中包含有“eMule”或“0.49c”字眼,但不包含有“exe”字眼的:emule|0.49c -exe
选中所有名称的开头是“eMule”,结尾是“0.49c”的:^emule 0.49c$
选中所有名称中带有“eMule 0.49c”的(必须是“eMule 0.49c”,中间没有别的字符,不能是“eMule fake 0.49c”),需要转义:"emule 0.49c"
大小选择器帮您根据文件大小选择文件。