当前位置: 首页 >> 海外电影 >> 极道公主[简繁字幕].Yakuza.Princess.2021.UHD.BluRay.2160p.TrueHD.Atmos.7.1.x265.10bit.HDR 24.46GB >> 正文

极道公主[简繁字幕].Yakuza.Princess.2021.UHD.BluRay.2160p.TrueHD.Atmos.7.1.x265.10bit.HDR 24.46GB

2021年11月16日 12:13:14     电影发布:来源于网络     电影分类:海外电影     评论(0)    

极道公主[简繁字幕].Yakuza.Princess.2021.UHD.BluRay.2160p.TrueHD.Atmos.7.1.x265.10bit.HDR 24.46GB 惊悚片 海外电影  第1张

◎译 名 极道公主

◎片 名 Yakuza Princess

◎年 代 2021

◎产 地 巴西

◎类 别 惊悚

◎语 言 英语

◎上映日期 2021-09-03(美国)

◎IMDb链接 https://www.imdb.com/title/tt10715446/

◎豆瓣评分 4.2/10 (223人评价)

◎豆瓣链接 https://movie.douban.com/subject/35156095/

◎片 长 111分钟

◎导 演 威森特·阿莫里姆 Vicente Amorim (id:1277165)

◎编 剧 威森特·阿莫里姆 Vicente Amorim (id:1277165)

◎演 员 乔纳森·莱斯·梅耶斯 Jonathan Rhys Meyers (id:1012518)

伊原刚志 Tsuyoshi Ihara (id:1041416)

肯尼·梁 Kenny Leu (id:1406458)

尾崎英二郎 Eijiro Ozaki (id:1401773)

查尔斯·帕拉文蒂 Charles Paraventi (id:1136712)

尼可拉斯·特列维扬诺 Nicolas Trevijano (id:1150733)

◎标 签 动作 / 巴西 / 2021 / 黑帮 / 惊悚 / 暴力 / 巴西电影 / 其他地区

◎简 介

围绕巴西圣保罗最大的日本侨民社区展开,讲述了孤儿Akemi(Masumi饰)发现自己是黑道犯罪集团一半的继承人,她在与一个失忆的陌生人(莱斯·梅耶斯饰)结成联盟后,Akemi相信是一把古老的剑将他们两人的命运捆绑在一起,她向想要她死的另一半犯罪集团发动了战争。

  1. ##### MediaInfo ######

  2. General

  3. Unique ID : 266704411309497504724193996047381041913 (0xC8A566B55010C9AF887244129ECA12F9)

  4. Complete name : Yakuza.Princ[email protected]BBQDDQ.COM.mkv

  5. Format : Matroska

  6. Format version : Version 4

  7. File size : 24.5 GiB

  8. Duration : 1 h 51 min

  9. Overall bit rate mode : Variable

  10. Overall bit rate : 31.5 Mb/s

  11. Encoded date : UTC 2021-11-15 00:55:44

  12. Writing application : mkvmerge v49.0.0 ('Sick Of Losing Soulmates') 64-bit

  13. Writing library : libebml v1.4.0 + libmatroska v1.6.1


  14. Video

  15. ID : 1

  16. Format : HEVC

  17. Format/Info : High Efficiency Video Coding

  18. Format profile : Main [email protected]@High

  19. HDR format : SMPTE ST 2086, HDR10 compatible

  20. Codec ID : V_MPEGH/ISO/HEVC

  21. Duration : 1 h 51 min

  22. Bit rate : 25.8 Mb/s

  23. Width : 3 840 pixels

  24. Height : 1 608 pixels

  25. Display aspect ratio : 2.40:1

  26. Frame rate mode : Constant

  27. Frame rate : 23.976 (24000/1001/53354) FPS

  28. Color space : YUV

  29. Chroma subsampling : 4:2:0 (Type 2)

  30. Bit depth : 10 bits

  31. Bits/(Pixel*Frame) : 0.174

  32. Stream size : 20.1 GiB (82%)

  33. Title : HEVC, [email protected]@High, 24/1.001 fps @ 25809 kbps

  34. Writing library : x265 3.4+14-gd419c7152:[Windows][GCC 10.2.0][64 bit] 10bit

  35. Encoding settings : cpuid=533541111039 / frame-threads=4 / numa-pools=20 / wpp / pmode / pme / no-psnr / no-ssim / log-level=2 / input-csp=1 / input-res=3840x1608 / interlace=0 / total-frames=160028 / level-idc=51 / high-tier=1 / uhd-bd=0 / ref=4 / no-allow-non-conformance / repeat-headers / annexb / no-aud / hrd / info / hash=0 / no-temporal-layers / no-open-gop / min-keyint=24 / keyint=240 / gop-lookahead=0 / bframes=8 / b-adapt=2 / b-pyramid / bframe-bias=0 / rc-lookahead=25 / lookahead-slices=0 / NTMzNTQ=uuDQuD2mJt9fsCf / scenecut=40 / hist-scenecut=0 / radl=0 / no-splice / no-intra-refresh / ctu=64 / min-cu-size=8 / no-rect / no-amp / max-tu-size=32 / tu-inter-depth=3 / tu-intra-depth=3 / limit-tu=4 / rdoq-level=2 / dynamic-rd=0.00 / no-ssim-rd / signhide / no-tskip / nr-intra=0 / nr-inter=0 / no-constrained-intra / no-strong-intra-smoothing / max-merge=4 / limit-refs=1 / limit-modes / me=3 / subme=4 / merange=25 / temporal-mvp / no-frame-dup / no-hme / weightp / weightb / no-analyze-src-pics / deblock=-3:-3 / no-sao / no-sao-non-deblock / rd=6 / selective-sao=0 / no-early-skip / rskip / no-fast-intra / no-tskip-fast / no-cu-lossless / b-intra / no-splitrd-skip / rdpenalty=0 / psy-rd=2.00 / psy-rdoq=1.00 / no-rd-refine / no-lossless / cbqpoffs=0 / crqpoffs=0 / rc=crf / crf=18.5 / qcomp=0.65 / qpstep=4 / stats-write=0 / stats-read=0 / vbv-maxrate=160000 / vbv-bufsize=160000 / vbv-init=0.9 / crf-max=0.0 / crf-min=0.0 / ipratio=1.30 / pbratio=1.20 / aq-mode=3 / aq-strength=0.85 / cutree / zone-count=0 / no-strict-cbr / qg-size=32 / no-rc-grain / qpmax=69 / qpmin=0 / no-const-vbv / sar=1 / overscan=0 / videoformat=5 / range=0 / colorprim=9 / transfer=16 / colormatrix=9 / chromaloc=1 / chromaloc-top=2 / chromaloc-bottom=2 / display-window=0 / master-display=G(13250,34500)B(7500,3000)R(34000,16000)WP(15635,16450)L(10000000,10) / cll=0,0 / min-luma=0 / max-luma=1023 / log2-max-poc-lsb=8 / vui-timing-info / vui-hrd-info / slices=1 / no-opt-qp-pps / no-opt-ref-list-length-pps / no-multi-pass-opt-rps / scenecut-bias=0.05 / hist-threshold=0.03 / no-opt-cu-delta-qp / no-aq-motion / hdr10 / hdr10-opt / no-dhdr10-opt / no-idr-recovery-sei / analysis-reuse-level=0 / analysis-save-reuse-level=0 / analysis-load-reuse-level=0 / scale-factor=0 / refine-intra=0 / refine-inter=0 / refine-mv=1 / refine-ctu-distortion=0 / no-limit-sao / ctu-info=0 / no-lowpass-dct / refine-analysis-type=0 / copy-pic=1 / max-ausize-factor=1.0 / no-dynamic-refine / no-single-sei / no-hevc-aq / no-svt / no-field / qp-adaptation-range=1.00 / no-scenecut-aware-qpconformance-window-offsets / right=0 / bottom=0 / NTMzNTQ= / decoder-max-rate=0

  36. Language : English

  37. Default : Yes

  38. Forced : No

  39. Color range : Limited

  40. Color primaries : BT.2020

  41. Transfer characteristics : PQ

  42. Matrix coefficients : BT.2020 non-constant

  43. Mastering display color primaries : Display P3

  44. Mastering display luminance : min: 0.0010 cd/m2, max: 1000 cd/m2


  45. Audio #1

  46. ID : 2

  47. Format : MLP FBA 16-ch

  48. Format/Info : Meridian Lossless Packing FBA with 16-channel presentation

  49. Commercial name : Dolby TrueHD with Dolby Atmos

  50. Codec ID : A_TRUEHD

  51. Duration : 1 h 51 min

  52. Bit rate mode : Variable

  53. Bit rate : 5 055 kb/s

  54. Maximum bit rate : 8 349 kb/s

  55. Channel(s) : 8 channels

  56. Channel layout : L R C LFE Ls Rs Lb Rb

  57. Sampling rate : 48.0 kHz

  58. Frame rate : 1 200.000 FPS (40 SPF)

  59. Compression mode : Lossless

  60. Stream size : 3.93 GiB (16%)

  61. Title : English Dolby TrueHD 7.1 (Atmos) @ 5503 kbps

  62. Language : English

  63. Default : Yes

  64. Forced : No

  65. Number of dynamic objects : 15

  66. Bed channel count : 1 channel

  67. Bed channel configuration : LFE


  68. Audio #2

  69. ID : 3

  70. Format : AC-3

  71. Format/Info : Audio Coding 3

  72. Commercial name : Dolby Digital

  73. Codec ID : A_AC3

  74. Duration : 1 h 51 min

  75. Bit rate mode : Constant

  76. Bit rate : 448 kb/s

  77. Channel(s) : 6 channels

  78. Channel layout : L R C LFE Ls Rs

  79. Sampling rate : 48.0 kHz

  80. Frame rate : 31.250 FPS (1536 SPF)

  81. Compression mode : Lossy

  82. Stream size : 356 MiB (1%)

  83. Title : English Dolby 5.1-EX 5.1 @ 448 kbps

  84. Language : English

  85. Service kind : Complete Main

  86. Default : No

  87. Forced : No


  88. Text #1

  89. ID : 4

  90. Format : PGS

  91. Codec ID : S_HDMV/PGS

  92. Codec ID/Info : Picture based subtitle format used on BDs/HD-DVDs

  93. Duration : 1 h 28 min

  94. Bit rate : 10.1 kb/s

  95. Count of elements : 442

  96. Stream size : 6.39 MiB (0%)

  97. Title : Eng/SUP

  98. Language : English

  99. Default : No

  100. Forced : No


  101. Text #2

  102. ID : 5

  103. Format : PGS

  104. Codec ID : S_HDMV/PGS

  105. Codec ID/Info : Picture based subtitle format used on BDs/HD-DVDs

  106. Duration : 1 h 44 min

  107. Bit rate : 34.8 kb/s

  108. Count of elements : 1716

  109. Stream size : 26.0 MiB (0%)

  110. Title : Eng/SUP SDH

  111. Language : English

  112. Default : No

  113. Forced : No


  114. Text #3

  115. ID : 6

  116. Format : PGS

  117. Codec ID : S_HDMV/PGS

  118. Codec ID/Info : Picture based subtitle format used on BDs/HD-DVDs

  119. Duration : 1 h 41 min

  120. Bit rate : 13.5 kb/s

  121. Count of elements : 1155

  122. Stream size : 9.83 MiB (0%)

  123. Title : Chs/SUP 简体

  124. Language : Chinese

  125. Default : Yes

  126. Forced : No


  127. Text #4

  128. ID : 7

  129. Format : PGS

  130. Codec ID : S_HDMV/PGS

  131. Codec ID/Info : Picture based subtitle format used on BDs/HD-DVDs

  132. Duration : 1 h 41 min

  133. Bit rate : 13.8 kb/s

  134. Count of elements : 1155

  135. Stream size : 10.0 MiB (0%)

  136. Title : Cht/SUP 繁体

  137. Language : Chinese

  138. Default : No

  139. Forced : No


  140. Text #5

  141. ID : 8

  142. Format : PGS

  143. Codec ID : S_HDMV/PGS

  144. Codec ID/Info : Picture based subtitle format used on BDs/HD-DVDs

  145. Duration : 1 h 41 min

  146. Bit rate : 19.1 kb/s

  147. Count of elements : 1155

  148. Stream size : 13.9 MiB (0%)

  149. Title : Chs/SUP 简英双语

  150. Language : Chinese

  151. Default : No

  152. Forced : No


  153. Text #6

  154. ID : 9

  155. Format : PGS

  156. Codec ID : S_HDMV/PGS

  157. Codec ID/Info : Picture based subtitle format used on BDs/HD-DVDs

  158. Duration : 1 h 41 min

  159. Bit rate : 19.4 kb/s

  160. Count of elements : 1155

  161. Stream size : 14.1 MiB (0%)

  162. Title : Cht/SUP 繁英双语

  163. Language : Chinese

  164. Default : No

  165. Forced : No


  166. Menu

  167. 00:00:00.000 : en:第 01 章

  168. 00:07:52.262 : en:第 02 章

  169. 00:13:39.817 : en:第 03 章

  170. 00:20:18.217 : en:第 04 章

  171. 00:30:24.823 : en:第 05 章

  172. 00:39:51.389 : en:第 06 章

  173. 00:45:36.733 : en:第 07 章

  174. 00:53:15.192 : en:第 08 章

  175. 01:02:26.742 : en:第 09 章

  176. 01:12:37.353 : en:第 10 章

  177. 01:19:56.792 : en:第 11 章

  178. 01:27:04.219 : en:第 12 章

  179. 01:34:23.658 : en:第 13 章

  180. 01:43:29.661 : en:第 14 章


文件下载


除非特别注明,本文『极道公主[简繁字幕].Yakuza.Princess.2021.UHD.BluRay.2160p.TrueHD.Atmos.7.1.x265.10bit.HDR 24.46GB』来源于互联网机器人自动抓取,非本站原创。 浮游电影网不对本文拥有版权,如有侵犯,请联系邮箱:fuyouu#yandex.com[#换成@]投诉。我们会在15个工作日内删除。 但烦请转载时请标明出处:“本文转载于『浮游电影网』,原文地址:https://www.fuyouu.com/18361.html

评论吧骚年!

发表你的见解   

昵称*

E-mail*(建议输入,以便收到博主回复的提示邮件)

验证码*

您可以使用eMule或eMule Mod(Windows)、aMule(Win、Linux、Mac)等软件下载eD2k链接。。
eMule收藏集(.emulecollection)文件是您选中的所有链接的列表文件。eMule可以直接下载它们。
按住SHIFT键选择可以选中多个选择框。
可用文件名和大小选择器来选择文件。
文件名选择器帮您根据文件名称或后缀来选择文件。不分大小写。
符号使用:
和:空格( )、+
不包含:-
或:|
转义:一对英文引号("");
匹配开头:^
匹配结尾:$
例如:
选中所有名称中包含有“eMule”或“0.49c”字眼,但不包含有“exe”字眼的:emule|0.49c -exe
选中所有名称的开头是“eMule”,结尾是“0.49c”的:^emule 0.49c$
选中所有名称中带有“eMule 0.49c”的(必须是“eMule 0.49c”,中间没有别的字符,不能是“eMule fake 0.49c”),需要转义:"emule 0.49c"
大小选择器帮您根据文件大小选择文件。