当前位置: 首页 >> 日韩电影 >> 布拉芙夫人[繁体字幕].Scarlet.Innocence.2014.BluRay.1080p.TrueHD.5.1.x265.10bit-bt9527.cc 8.87GB >> 正文

布拉芙夫人[繁体字幕].Scarlet.Innocence.2014.BluRay.1080p.TrueHD.5.1.x265.10bit-bt9527.cc 8.87GB

2021年11月16日 12:04:47     电影发布:来源于网络     电影分类:日韩电影     评论(0)    

布拉芙夫人[繁体字幕].Scarlet.Innocence.2014.BluRay.1080p.TrueHD.5.1.x265.10bit bt9527.cc 8.87GB 爱情片 惊悚片 日韩电影  第1张

◎译 名 布拉芙夫人 / 情欲诱惑(港 / 台) / Scarlet Innocence

◎片 名 ?? ??

◎年 代 2014

◎产 地 韩国

◎类 别 爱情 / 惊悚 / 情色

◎语 言 韩语

◎上映日期 2014-10-02(韩国)

◎IMDb链接 https://www.imdb.com/title/tt3958014/

◎豆瓣评分 5.9/10 (16880人评价)

◎豆瓣链接 https://movie.douban.com/subject/10508874/

◎片 长 113分钟

◎导 演 任弼星 Pil-Sung Yim (id:1309401)

◎编 剧 张允美 Yoon-mi Jang (id:1345479)

任弼星 Pil-Sung Yim (id:1309401)

◎演 员 郑雨盛 Woo-sung Jung (id:1032365)

李絮 Esom E. (id:1322386)

朴晓英 So-young Park (id:1344902)

朴瑞妍 Park Seo Yeon (id:1366367)

朴素丹 So-dam Park (id:1343344)

李昶勋 Chang-hoon Lee (id:1388288)

韩珠英 Joo-young Han (id:1397675)

崔里浩 Choi Ri-ho (id:1374005)

柳顺雄 Soon-woong Yoo (id:1387807)

孙锡久 Sukku Son (id:1386567)

郑道元 Do-won Jung (id:1385927)

金智雄 Ji-woong Kim (id:1456146)

李圣贤 Mowg (id:1329977)

◎标 签 情色 / 韩国 / 韩国电影 / 郑雨盛 / 爱情 / 复仇 / 剧情 / 2014

◎简 介

大学教授学奎(郑雨盛 饰)因为一场性丑闻而失去了一切,被贬值到十分偏远的小镇任职。在那里,学奎遇见了美丽的少女德伊(李絮 饰),两人坠入爱河。然而,不久之后,学奎官复原职,即将回到大都市首尔,为了自己的前途,学奎残忍的抛弃了德伊。

一晃眼八年过去,此时的学奎已经成为了小有名气的作家,事业走上的巅峰,前途一片光明。可是,就在这个节骨眼上,他却患上了不治的眼疾,视力一天一天的退化下去。某日,学奎的隔壁搬来了一位名为世静的女子,世静待学奎十分亲切,在生活中对他无微不至。随着时间的推移,学奎觉得自己已经离不开世静了。然而,目不能视的学奎并不知道,世静的真正身份,正是曾被自己抛弃的德伊。

◎获奖情况 (共3项)

第35届韩国电影青龙奖 (2014)

最佳新人女演员(提名)

└──李絮 (id:1322386)

第51届百想艺术大赏 (2015)

电影类 最佳新人女演员(提名)

└──李絮 (id:1322386)

第51届韩国电影大钟奖 (2014)

最佳新人女演员(提名)

└──李絮 (id:1322386)

  1. ##### MediaInfo ######

  2. General

  3. Unique ID : 8503111226509878374629820428573113489 (0x665A3C04F36F7B7D3F32565873A7C91)

  4. Complete name : [email protected]BBQDDQ.COM.mkv

  5. Format : Matroska

  6. Format version : Version 4

  7. File size : 8.87 GiB

  8. Duration : 1 h 52 min

  9. Overall bit rate mode : Variable

  10. Overall bit rate : 11.3 Mb/s

  11. Encoded date : UTC 2021-11-15 00:34:48

  12. Writing application : mkvmerge v49.0.0 ('Sick Of Losing Soulmates') 64-bit

  13. Writing library : libebml v1.4.0 + libmatroska v1.6.1


  14. Video

  15. ID : 1

  16. Format : HEVC

  17. Format/Info : High Efficiency Video Coding

  18. Format profile : Main [email protected]@High

  19. Codec ID : V_MPEGH/ISO/HEVC

  20. Duration : 1 h 52 min

  21. Bit rate : 7 991 kb/s

  22. Width : 1 920 pixels

  23. Height : 1 038 pixels

  24. Display aspect ratio : 1.85:1

  25. Frame rate mode : Constant

  26. Frame rate : 24.000 FPS

  27. Color space : YUV

  28. Chroma subsampling : 4:2:0

  29. Bit depth : 10 bits

  30. Bits/(Pixel*Frame) : 0.167

  31. Stream size : 6.27 GiB (71%)

  32. Title : HEVC, [email protected]@High, 24 fps @ 7991 kbps

  33. Writing library : x265 3.4+14-gd419c7152:[Windows][GCC 10.2.0][64 bit] 10bit

  34. Encoding settings : cpuid=533541111039 / frame-threads=4 / numa-pools=16 / wpp / pmode / pme / no-psnr / no-ssim / log-level=2 / input-csp=1 / input-res=1920x1038 / interlace=0 / total-frames=161808 / level-idc=51 / high-tier=1 / uhd-bd=0 / ref=5 / no-allow-non-conformance / no-repeat-headers / annexb / no-aud / no-hrd / info / hash=0 / no-temporal-layers / open-gop / min-keyint=24 / keyint=240 / gop-lookahead=0 / bframes=6 / b-adapt=2 / b-pyramid / bframe-bias=0 / rc-lookahead=40 / lookahead-slices=0 / NTMzNTQ=uuDQuD2mJt9fsCf / scenecut=40 / hist-scenecut=0 / radl=0 / no-splice / no-intra-refresh / ctu=32 / min-cu-size=8 / no-rect / no-amp / max-tu-size=32 / tu-inter-depth=3 / tu-intra-depth=3 / limit-tu=4 / rdoq-level=2 / dynamic-rd=0.00 / no-ssim-rd / signhide / no-tskip / nr-intra=0 / nr-inter=0 / no-constrained-intra / no-strong-intra-smoothing / max-merge=4 / limit-refs=1 / limit-modes / me=3 / subme=4 / merange=25 / temporal-mvp / no-frame-dup / no-hme / weightp / weightb / no-analyze-src-pics / deblock=-3:-3 / no-sao / no-sao-non-deblock / rd=6 / selective-sao=0 / no-early-skip / rskip / no-fast-intra / no-tskip-fast / no-cu-lossless / b-intra / no-splitrd-skip / rdpenalty=0 / psy-rd=2.00 / psy-rdoq=1.00 / no-rd-refine / no-lossless / cbqpoffs=0 / crqpoffs=0 / rc=crf / crf=17.0 / qcomp=0.65 / qpstep=4 / stats-write=0 / stats-read=0 / vbv-maxrate=80000 / vbv-bufsize=80000 / vbv-init=0.9 / crf-max=0.0 / crf-min=0.0 / ipratio=1.40 / pbratio=1.30 / aq-mode=2 / aq-strength=0.85 / cutree / zone-count=0 / no-strict-cbr / qg-size=32 / no-rc-grain / qpmax=69 / qpmin=0 / no-const-vbv / sar=1 / overscan=0 / videoformat=5 / range=0 / colorprim=1 / transfer=1 / colormatrix=1 / chromaloc=0 / display-window=0 / cll=0,0 / min-luma=0 / max-luma=1023 / log2-max-poc-lsb=8 / vui-timing-info / vui-hrd-info / slices=1 / no-opt-qp-pps / no-opt-ref-list-length-pps / no-multi-pass-opt-rps / scenecut-bias=0.05 / hist-threshold=0.03 / no-opt-cu-delta-qp / no-aq-motion / no-hdr10 / no-hdr10-opt / no-dhdr10-opt / no-idr-recovery-sei / analysis-reuse-level=0 / analysis-save-reuse-level=0 / analysis-load-reuse-level=0 / scale-factor=0 / refine-intra=0 / refine-inter=0 / refine-mv=1 / refine-ctu-distortion=0 / no-limit-sao / ctu-info=0 / no-lowpass-dct / refine-analysis-type=0 / copy-pic=1 / max-ausize-factor=1.0 / no-dynamic-refine / no-single-sei / no-hevc-aq / no-svt / no-field / qp-adaptation-range=1.00 / no-scenecut-aware-qpconformance-window-offsets / right=0 / bottom=0 / NTMzNTQ= / decoder-max-rate=0

  35. Language : English

  36. Default : Yes

  37. Forced : No

  38. Color range : Limited

  39. Color primaries : BT.709

  40. Transfer characteristics : BT.709

  41. Matrix coefficients : BT.709


  42. Audio #1

  43. ID : 2

  44. Format : MLP FBA

  45. Format/Info : Meridian Lossless Packing FBA

  46. Commercial name : Dolby TrueHD

  47. Codec ID : A_TRUEHD

  48. Duration : 1 h 52 min

  49. Bit rate mode : Variable

  50. Bit rate : 2 560 kb/s

  51. Maximum bit rate : 4 098 kb/s

  52. Channel(s) : 6 channels

  53. Channel layout : L R C LFE Ls Rs

  54. Sampling rate : 96.0 kHz

  55. Frame rate : 1 200.000 FPS (80 SPF)

  56. Compression mode : Lossless

  57. Stream size : 2.01 GiB (23%)

  58. Title : Korean Dolby TrueHD 5.1 @ 2560 kbps

  59. Language : Korean

  60. Default : Yes

  61. Forced : No


  62. Audio #2

  63. ID : 3

  64. Format : AC-3

  65. Format/Info : Audio Coding 3

  66. Commercial name : Dolby Digital

  67. Codec ID : A_AC3

  68. Duration : 1 h 52 min

  69. Bit rate mode : Constant

  70. Bit rate : 640 kb/s

  71. Channel(s) : 6 channels

  72. Channel layout : L R C LFE Ls Rs

  73. Sampling rate : 48.0 kHz

  74. Frame rate : 31.250 FPS (1536 SPF)

  75. Compression mode : Lossy

  76. Stream size : 514 MiB (6%)

  77. Title : Korean AC3 5.1-EX @ 640 kbps

  78. Language : Korean

  79. Service kind : Complete Main

  80. Default : No

  81. Forced : No


  82. Text #1

  83. ID : 4

  84. Format : PGS

  85. Codec ID : S_HDMV/PGS

  86. Codec ID/Info : Picture based subtitle format used on BDs/HD-DVDs

  87. Duration : 1 h 47 min

  88. Bit rate : 20.0 kb/s

  89. Count of elements : 1592

  90. Stream size : 15.4 MiB (0%)

  91. Title : Cht/SUP 原盘繁体

  92. Language : Chinese

  93. Default : Yes

  94. Forced : No


  95. Text #2

  96. ID : 5

  97. Format : PGS

  98. Codec ID : S_HDMV/PGS

  99. Codec ID/Info : Picture based subtitle format used on BDs/HD-DVDs

  100. Duration : 1 h 48 min

  101. Bit rate : 23.9 kb/s

  102. Count of elements : 1581

  103. Stream size : 18.5 MiB (0%)

  104. Title : Eng/SUP

  105. Language : English

  106. Default : No

  107. Forced : No


  108. Menu

  109. 00:00:00.000 : en:第 01 章

  110. 00:10:07.333 : en:第 02 章

  111. 00:19:28.375 : en:第 03 章

  112. 00:27:18.708 : en:第 04 章

  113. 00:38:24.000 : en:第 05 章

  114. 00:45:52.000 : en:第 06 章

  115. 00:57:04.250 : en:第 07 章

  116. 01:03:07.042 : en:第 08 章

  117. 01:16:02.125 : en:第 09 章

  118. 01:24:01.167 : en:第 10 章

  119. 01:32:44.375 : en:第 11 章

  120. 01:41:59.125 : en:第 12 章




复制代码



文件下载


除非特别注明,本文『布拉芙夫人[繁体字幕].Scarlet.Innocence.2014.BluRay.1080p.TrueHD.5.1.x265.10bit-bt9527.cc 8.87GB』来源于互联网机器人自动抓取,非本站原创。 浮游电影网不对本文拥有版权,如有侵犯,请联系邮箱:fuyouu#yandex.com[#换成@]投诉。我们会在15个工作日内删除。 但烦请转载时请标明出处:“本文转载于『浮游电影网』,原文地址:https://www.fuyouu.com/18357.html

评论吧骚年!

发表你的见解   

昵称*

E-mail*(建议输入,以便收到博主回复的提示邮件)

验证码*

您可以使用eMule或eMule Mod(Windows)、aMule(Win、Linux、Mac)等软件下载eD2k链接。。
eMule收藏集(.emulecollection)文件是您选中的所有链接的列表文件。eMule可以直接下载它们。
按住SHIFT键选择可以选中多个选择框。
可用文件名和大小选择器来选择文件。
文件名选择器帮您根据文件名称或后缀来选择文件。不分大小写。
符号使用:
和:空格( )、+
不包含:-
或:|
转义:一对英文引号("");
匹配开头:^
匹配结尾:$
例如:
选中所有名称中包含有“eMule”或“0.49c”字眼,但不包含有“exe”字眼的:emule|0.49c -exe
选中所有名称的开头是“eMule”,结尾是“0.49c”的:^emule 0.49c$
选中所有名称中带有“eMule 0.49c”的(必须是“eMule 0.49c”,中间没有别的字符,不能是“eMule fake 0.49c”),需要转义:"emule 0.49c"
大小选择器帮您根据文件大小选择文件。