当前位置: 首页 >> 欧美电影 >> 劫持游侠[中文字幕].Rogue.Hostage.2021.1080p.BluRay.x265.10bit.DTS-bt9527.cc 3.96GB >> 正文

劫持游侠[中文字幕].Rogue.Hostage.2021.1080p.BluRay.x265.10bit.DTS-bt9527.cc 3.96GB

2021年11月16日 12:03:13     电影发布:来源于网络     电影分类:欧美电影     评论(0)    

劫持游侠[中文字幕].Rogue.Hostage.2021.1080p.BluRay.x265.10bit.DTS bt9527.cc 3.96GB 犯罪片 惊悚片 动作片 欧美电影  第1张

◎译 名 劫持游侠 / Red 48

◎片 名 Rogue Hostage

◎年 代 2021

◎产 地 美国

◎类 别 动作 / 惊悚 / 犯罪

◎语 言 英语

◎上映日期 2021-06-11(美国)

◎IMDb链接 https://www.imdb.com/title/tt13067292/

◎豆瓣评分 3.4/10 (274人评价)

◎豆瓣链接 https://movie.douban.com/subject/35203378/

◎片 长 93分钟

◎导 演 强·基耶斯 Jon Keeyes (id:1001228)

◎演 员 霍莉·泰勒 Holly Taylor (id:1335874)

约翰·马尔科维奇 John Malkovich (id:1041013)

迈克尔·加·怀特 Michael Jai White (id:1040509)

泰瑞斯·吉布森 Tyrese Gibson (id:1010486)

劳伦·维勒斯 Lauren Vélez (id:1166181)

克里斯托弗·巴库斯 Christopher Backus (id:1040791)

约翰·D·希克曼 John D. Hickman (id:1428172)

莱斯莉·斯特拉顿 Leslie Stratton (id:1391533)

亚历山大·维舍尔鲍默 Aleksander Vayshelboym (id:1392514)

艾德里安·阿尔瓦拉多 Adrian Alvarado (id:1213190)

布鲁克·卡雷尔 Brooke Carrell (id:1392937)

Charlie Sara Charlie Sara (id:1217931)

◎标 签 犯罪 / 美国 / 动作 / 2021 / 剧情 / 约翰·马尔科维奇 / 美国电影 / 迈克尔·加·怀特

◎简 介

Tyrese Gibson, John Malkovich and Michael Jai White will star in Red 48, an indie action thriller from Yale Productions.

Jon Keeyes (The Harrowing) is directing the feature, which has an original script by Mickey Solis and is wrapping production this week in and around the Tri-State area.

Gibson will play Kyle Snowden, a troubled former Marine turned child protective service of...

  1. ##### MediaInfo ######

  2. General

  3. Unique ID : 143802317291473242167452148855627541409 (0x6C2F51A31019AE152B65E1DB2BC36BA1)

  4. Complete name : [email protected]mkv

  5. Format : Matroska

  6. Format version : Version 4

  7. File size : 3.96 GiB

  8. Duration : 1 h 33 min

  9. Overall bit rate : 6 054 kb/s

  10. Encoded date : UTC 2021-11-14 06:44:13

  11. Writing application : mkvmerge v49.0.0 ('Sick Of Losing Soulmates') 64-bit

  12. Writing library : libebml v1.4.0 + libmatroska v1.6.1


  13. Video

  14. ID : 7

  15. Format : HEVC

  16. Format/Info : High Efficiency Video Coding

  17. Format profile : Main [email protected]@Main

  18. Codec ID : V_MPEGH/ISO/HEVC

  19. Duration : 1 h 33 min

  20. Bit rate : 4 470 kb/s

  21. Width : 1 920 pixels

  22. Height : 824 pixels

  23. Display aspect ratio : 2.35:1

  24. Frame rate mode : Constant

  25. Frame rate : 23.976 (24000/1001/53354) FPS

  26. Color space : YUV

  27. Chroma subsampling : 4:2:0

  28. Bit depth : 10 bits

  29. Bits/(Pixel*Frame) : 0.118

  30. Stream size : 2.93 GiB (74%)

  31. Writing library : x265 3.5+2-g2b25c9ba0+45:[Windows][GCC 10.2.0][64 bit] Yuuki 10bit+8bit+12bit

  32. Encoding settings : rc=crf / crf=16.0000 / qcomp=0.60 / qpstep=4 / stats-write=0 / stats-read=0 / no-lossless / no-cu-lossless / aq-mode=3 / aq-strength=0.90 / cbqpoffs=0 / crqpoffs=0 / ipratio=1.40 / pbratio=1.30 / psy-rd=2.00 / psy-rdoq=0.00 / deblock=0:0 / ref=6 / limit-refs=1 / no-limit-modes / bframes=8 / b-adapt=2 / bframe-bias=0 / b-pyramid / b-intra / weightp / weightb / min-keyint=24 / max-keyint=240 / rc-lookahead=24 / gop-lookahead=0 / NTMzNTQ=uuDQuD2mJt9fsCf / scenecut=40 / hist-scenecut=0 / radl=0 / max-cu-size=64 / min-cu-size=8 / me=3 / subme=7 / merange=48 / rdoq-level=0 / rd=4 / rdpenalty=0 / dynamic-rd=0.00 / no-rd-refine / ----- / cutree / sao / no-rect / no-amp / no-open-gop / wpp / no-pmode / no-pme / no-psnr / no-ssim / nr-intra=0 / nr-inter=0 / no-constrained-intra / no-strong-intra-smoothing / max-tu-size=32 / tu-inter-depth=1 / tu-intra-depth=1 / limit-tu=0 / qg-size=32 / qpmax=69 / qpmin=0 / ----- / cpuid=533541111039 / frame-threads=4 / numa-pools=+ / log-level=2 / input-csp=1 / input-res=1920x824 / interlace=0 / level-idc=0 / high-tier=1 / uhd-bd=0 / no-allow-non-conformance / no-repeat-headers / aud / no-hrd / info / hash=0 / no-temporal-layers / lookahead-slices=0 / no-splice / no-intra-refresh / no-ssim-rd / signhide / no-tskip / max-merge=3 / temporal-mvp / no-frame-dup / no-hme / no-analyze-src-pics / no-sao-non-deblock / selective-sao=4 / early-skip / rskip / no-fast-intra / no-tskip-fast / no-splitrd-skip / zone-count=0 / no-strict-cbr / no-rc-grain / no-const-vbv / sar=0 / overscan=0 / videoformat=5 / range=0 / colorprim=2 / transfer=2 / colormatrix=2 / chromaloc=0 / display-window=0 / cll=0,0 / min-luma=0 / max-luma=1023 / log2-max-poc-lsb=8 / vui-timing-info / vui-hrd-info / slices=1 / no-opt-qp-pps / no-opt-ref-list-length-pps / no-multi-pass-opt-rps / scenecut-bias=0.05 / hist-threshold=0.03 / no-opt-cu-delta-qp / no-aq-motion / no-hdr10 / no-hdr10-opt / no-dhdr10-opt / no-idr-recovery-sei / analysis-reuse-level=0 / analysis-save-reuse-level=0 / analysis-load-reuse-level=0 / scale-factor=0 / refine-intra=0 / refine-inter=0 / refine-mv=1 / refine-ctu-distortion=0 / no-limit-sao / ctu-info=0 / no-lowpass-dct / refine-analysis-type=0 / copy-pic=1 / max-ausize-factor=1.0 / no-dynamic-refine / no-single-sei / no-hevc-aq / no-svt / no-field / qp-adaptation-range=1.00 / scenecut-aware-qp=0conformance-window-offsets / right=0 / bottom=0 / NTMzNTQ= / decoder-max-rate=0 / no-vbv-live-multi-pass

  33. Language : English

  34. Default : Yes

  35. Forced : No


  36. Audio

  37. ID : 1

  38. ID in the original source medium : 4352 (0x1100)

  39. Format : DTS

  40. Format/Info : Digital Theater Systems

  41. Codec ID : A_DTS

  42. Duration : 1 h 33 min

  43. Bit rate mode : Constant

  44. Bit rate : 1 509 kb/s

  45. Channel(s) : 6 channels

  46. Channel layout : C L R Ls Rs LFE

  47. Sampling rate : 48.0 kHz

  48. Frame rate : 93.750 FPS (512 SPF)

  49. Bit depth : 24 bits

  50. Compression mode : Lossy

  51. Stream size : 1 012 MiB (25%)

  52. Language : English

  53. Default : Yes

  54. Forced : No

  55. Original source medium : Blu-ray


  56. Text #1

  57. ID : 2

  58. ID in the original source medium : 4608 (0x1200)

  59. Format : PGS

  60. Muxing mode : zlib

  61. Codec ID : S_HDMV/PGS

  62. Codec ID/Info : Picture based subtitle format used on BDs/HD-DVDs

  63. Duration : 1 h 30 min

  64. Bit rate : 31.1 kb/s

  65. Count of elements : 2642

  66. Stream size : 20.2 MiB (0%)

  67. Language : English

  68. Default : Yes

  69. Forced : No

  70. Original source medium : Blu-ray


  71. Text #2

  72. ID : 3

  73. ID in the original source medium : 4609 (0x1201)

  74. Format : PGS

  75. Muxing mode : zlib

  76. Codec ID : S_HDMV/PGS

  77. Codec ID/Info : Picture based subtitle format used on BDs/HD-DVDs

  78. Duration : 1 h 27 min

  79. Bit rate : 41.5 kb/s

  80. Count of elements : 2055

  81. Stream size : 26.1 MiB (1%)

  82. Language : Chinese

  83. Default : No

  84. Forced : No

  85. Original source medium : Blu-ray


  86. Text #3

  87. ID : 4

  88. ID in the original source medium : 4610 (0x1202)

  89. Format : PGS

  90. Muxing mode : zlib

  91. Codec ID : S_HDMV/PGS

  92. Codec ID/Info : Picture based subtitle format used on BDs/HD-DVDs

  93. Duration : 1 h 27 min

  94. Bit rate : 41.7 kb/s

  95. Count of elements : 2055

  96. Stream size : 26.2 MiB (1%)

  97. Language : Chinese

  98. Default : No

  99. Forced : No

  100. Original source medium : Blu-ray


  101. Text #4

  102. ID : 5

  103. ID in the original source medium : 4611 (0x1203)

  104. Format : PGS

  105. Muxing mode : zlib

  106. Codec ID : S_HDMV/PGS

  107. Codec ID/Info : Picture based subtitle format used on BDs/HD-DVDs

  108. Duration : 1 h 27 min

  109. Bit rate : 24.5 kb/s

  110. Count of elements : 2055

  111. Stream size : 15.4 MiB (0%)

  112. Language : Chinese

  113. Default : No

  114. Forced : No

  115. Original source medium : Blu-ray


  116. Text #5

  117. ID : 6

  118. ID in the original source medium : 4612 (0x1204)

  119. Format : PGS

  120. Muxing mode : zlib

  121. Codec ID : S_HDMV/PGS

  122. Codec ID/Info : Picture based subtitle format used on BDs/HD-DVDs

  123. Duration : 1 h 27 min

  124. Bit rate : 24.7 kb/s

  125. Count of elements : 2055

  126. Stream size : 15.5 MiB (0%)

  127. Language : Chinese

  128. Default : No

  129. Forced : No

  130. Original source medium : Blu-ray


  131. Menu

  132. 00:00:00.000 : en:第 01 章

  133. 00:09:13.344 : en:第 02 章

  134. 00:17:58.410 : en:第 03 章

  135. 00:27:15.550 : en:第 04 章

  136. 00:37:20.446 : en:第 05 章

  137. 00:45:42.948 : en:第 06 章

  138. 00:56:00.982 : en:第 07 章

  139. 01:06:49.005 : en:第 08 章

  140. 01:16:28.458 : en:第 09 章

  141. 01:24:45.246 : en:第 10 章




复制代码



文件下载


除非特别注明,本文『劫持游侠[中文字幕].Rogue.Hostage.2021.1080p.BluRay.x265.10bit.DTS-bt9527.cc 3.96GB』来源于互联网机器人自动抓取,非本站原创。 浮游电影网不对本文拥有版权,如有侵犯,请联系邮箱:fuyouu#yandex.com[#换成@]投诉。我们会在15个工作日内删除。 但烦请转载时请标明出处:“本文转载于『浮游电影网』,原文地址:https://www.fuyouu.com/18356.html

评论吧骚年!

发表你的见解   

昵称*

E-mail*(建议输入,以便收到博主回复的提示邮件)

验证码*

您可以使用eMule或eMule Mod(Windows)、aMule(Win、Linux、Mac)等软件下载eD2k链接。。
eMule收藏集(.emulecollection)文件是您选中的所有链接的列表文件。eMule可以直接下载它们。
按住SHIFT键选择可以选中多个选择框。
可用文件名和大小选择器来选择文件。
文件名选择器帮您根据文件名称或后缀来选择文件。不分大小写。
符号使用:
和:空格( )、+
不包含:-
或:|
转义:一对英文引号("");
匹配开头:^
匹配结尾:$
例如:
选中所有名称中包含有“eMule”或“0.49c”字眼,但不包含有“exe”字眼的:emule|0.49c -exe
选中所有名称的开头是“eMule”,结尾是“0.49c”的:^emule 0.49c$
选中所有名称中带有“eMule 0.49c”的(必须是“eMule 0.49c”,中间没有别的字符,不能是“eMule fake 0.49c”),需要转义:"emule 0.49c"
大小选择器帮您根据文件大小选择文件。