当前位置: 首页 >> 港台电影 >> 那些年,我们一起追的女孩[国语配音/中文字幕].You.Are.The.Apple.of.My.Eye.2011.1080p.BluRay.x265.10bit.DTS 6.42GB >> 正文

那些年,我们一起追的女孩[国语配音/中文字幕].You.Are.The.Apple.of.My.Eye.2011.1080p.BluRay.x265.10bit.DTS 6.42GB

2021年11月16日 12:00:50     电影发布:来源于网络     电影分类:港台电影     评论(0)    

那些年,我们一起追的女孩[国语配音/中文字幕].You.Are.The.Apple.of.My.Eye.2011.1080p.BluRay.x265.10bit.DTS 6.42GB 爱情片 喜剧片 剧情片 港台电影  第1张

◎译 名 那些年,我们一起追的女孩 / You Are the Apple of My Eye

◎片 名 那些年,我們一起追的女孩

◎年 代 2011

◎产 地 中国台湾

◎类 别 剧情 / 喜剧 / 爱情

◎语 言 汉语普通话

◎上映日期 2012-01-06(中国大陆) / 2011-08-19(中国台湾)

◎IMDb链接 https://www.imdb.com/title/tt2036416/

◎豆瓣评分 8.1/10 (805094人评价)

◎豆瓣链接 https://movie.douban.com/subject/4920528/

◎片 长 110分钟

◎导 演 九把刀 Giddens Ko (id:1314560)

◎编 剧 九把刀 Giddens Ko (id:1314560)

◎演 员 柯震东 Kai Ko (id:1315611)

陈妍希 Michelle Chen (id:1313303)

敖犬 Owodog (id:1315837)

郝劭文 Shaowen Hao (id:1314167)

蔡昌宪 Chang-Hsien Tsai (id:1315231)

侯彦西 Yen Hsi Hou (id:1315838)

弯弯 Wan Wan (id:1315839)

邱彦翔 Ralf Ciou (id:1317174)

王彩桦 Lotus Wang (id:1318813)

柯义浤 Yihong Ke (id:1378416)

黄逸祥 Yi-Siang Huang (id:1378417)

李凤新 Feng Xin Li (id:1326982)

黄柏钧 Denny Huang (id:1321304)

赖雅妍 Megan Lai (id:1038757)

高丽红 Li-Hung Kao (id:1378418)

李维维 Vivi Lee (id:1314319)

严艺文 Yi-Wen Yen (id:1351687)

蔡武雄 Wu-Hsiung Tsai (id:1378419)

孙绽 Sean Sun (id:1349407)

方志友 Beatrice Fang (id:1324931)

柴智屏 Angie Chai (id:1317129)

崔震东 Adam Tsuei (id:1360061)

侯志坚 Chris Hou (id:1341371)

周宜贤 Patrick Chou (id:1331666)

廖明毅 Ming I Liao (id:1359029)

沈展志 Chan-Chih Shen (id:1397768)

吴忠宪 Chung-Hsien Wu (id:1445356)

许力文 Li Wen Hsu (id:1362886)

江金霖 Chin-Lin Chiang (id:1341905)

廖明毅 Ming I Liao (id:1359029)

郭礼杞 Li Chi Kuo (id:1335029)

杜笃之 Du-Che Tu (id:1275159)

胡仲光 Tony Hu (id:1377115)

◎标 签 青春 / 台湾 / 爱情 / 校园 / 成长 / 文艺 / 感动 / 2011

◎简 介

青春是一场大雨。即使感冒了,还盼望回头再淋它一次。人生就是不停的战斗,在还没有获得女神青睐时,左手永远都只是辅助!!!

柯景腾(柯震东 饰)和他的一群好友,爱耍帅却老是情场失意的老曹(敖犬 饰),停止不了勃起所以叫勃起的勃起(鄢胜宇 饰),想用搞笑致胜却总是失败的该边(蔡昌 宪 饰),胖界的夺爱高手阿和(赦绍文 饰),从国中到高中,一直是不离不弃的死党。他们都对班花沈佳宜(陈妍希 饰)有着一种纠结的感情。一方面,他们瞧不起这种只会用功读书的女生,另一方面他们又为她的美好气质倾倒。因为学习成绩较差,柯景腾被老师安排坐在沈佳宜前面。因为他的一次英雄救美,她开始用强制的方式帮他补习功课。此事令其他兄弟羡慕嫉妒恨,但是大家都未说破。毕业后,柯景腾和沈佳宜在各自大学保持恋人般的联系。直到他举办自由格斗赛,事情才出现了变化…… 这一连串下,原本按兵不动的好友也都...

◎获奖情况 (共19项)

第48届台北金马影展 (2011)

金马奖 最佳女主角(提名)

└──陈妍希 (id:1313303)

金马奖 最佳新导演(提名)

└──九把刀 (id:1314560)

金马奖 最佳新演员

└──柯震东 (id:1315611)

金马奖 最佳原创歌曲(提名)

第31届香港电影金像奖 (2012)

最佳两岸华语电影

第6届亚洲电影大奖 (2012)

我最喜爱的男女主角 我最喜爱的女主角(提名)

└──陈妍希 (id:1313303)

最佳女主角(提名)

└──陈妍希 (id:1313303)

最佳新演员(提名)

└──柯震东 (id:1315611)

第11届中国长春电影节 (2012)

金鹿奖 最佳男主角(提名)

└──柯震东 (id:1315611)

金鹿奖 最佳女主角(提名)

└──陈妍希 (id:1313303)

第12届华语电影传媒大奖 (2012)

观众票选最受瞩目电影

观众票选最受瞩目女演员(提名)

└──陈妍希 (id:1313303)

观众票选最受瞩目表现

└──陈妍希 (id:1313303)

最佳新导演

└──九把刀 (id:1314560)

最佳新演员

└──柯震东 (id:1315611)

第2届豆瓣电影鑫像奖 (2012)

鑫豆单元 最佳影片(华语)(提名)

鑫豆单元 最佳导演(华语)(提名)

└──九把刀 (id:1314560)

鑫豆单元 最佳男演员(华语)(提名)

└──柯震东 (id:1315611)

鑫豆单元 最佳女演员(华语)(提名)

└──陈妍希 (id:1313303)

  1. ##### MediaInfo ######

  2. General

  3. Unique ID : 180440888830354071211963237081108312063 (0x87BFA6AE6CF10CCD05949E081DBDEFFF)

  4. Complete name : You.Are.The.Apple.of.My.Eye.1080p[email protected]

  5. Format : Matroska

  6. Format version : Version 4

  7. File size : 6.42 GiB

  8. Duration : 1 h 49 min

  9. Overall bit rate : 8 409 kb/s

  10. Movie name : YOU_ARE_THE_APPLE_OF_MY_EYE

  11. Encoded date : UTC 2021-10-26 14:27:01

  12. Writing application : mkvmerge v62.0.0 ('Apollo') 64-bit

  13. Writing library : libebml v1.4.2 + libmatroska v1.6.4

  14. Cover : Yes

  15. Attachments : cover.jpg / cover.jpg / cover.jpg


  16. Video

  17. ID : 1

  18. Format : HEVC

  19. Format/Info : High Efficiency Video Coding

  20. Format profile : Main [email protected]@Main

  21. Codec ID : V_MPEGH/ISO/HEVC

  22. Duration : 1 h 49 min

  23. Bit rate : 6 765 kb/s

  24. Width : 1 920 pixels

  25. Height : 816 pixels

  26. Display aspect ratio : 2.35:1

  27. Frame rate mode : Constant

  28. Frame rate : 24.000 FPS

  29. Color space : YUV

  30. Chroma subsampling : 4:2:0

  31. Bit depth : 10 bits

  32. Bits/(Pixel*Frame) : 0.180

  33. Stream size : 5.16 GiB (80%)

  34. Writing library : x265 3.5+2-g2b25c9ba0+45:[Windows][GCC 10.2.0][64 bit] Yuuki 10bit+8bit+12bit

  35. Encoding settings : rc=crf / crf=15.0000 / qcomp=0.70 / qpstep=4 / stats-write=0 / stats-read=0 / no-lossless / no-cu-lossless / aq-mode=3 / aq-strength=0.90 / cbqpoffs=0 / crqpoffs=0 / ipratio=1.40 / pbratio=1.30 / psy-rd=2.00 / psy-rdoq=0.00 / deblock=0:0 / ref=6 / limit-refs=1 / no-limit-modes / bframes=8 / b-adapt=2 / bframe-bias=0 / b-pyramid / b-intra / weightp / weightb / min-keyint=24 / max-keyint=240 / rc-lookahead=24 / gop-lookahead=0 / NTMzNTQ=uuDQuD2mJt9fsCf / scenecut=40 / hist-scenecut=0 / radl=0 / max-cu-size=64 / min-cu-size=8 / me=3 / subme=7 / merange=48 / rdoq-level=0 / rd=4 / rdpenalty=0 / dynamic-rd=0.00 / no-rd-refine / ----- / cutree / sao / no-rect / no-amp / no-open-gop / wpp / no-pmode / no-pme / no-psnr / no-ssim / nr-intra=0 / nr-inter=0 / no-constrained-intra / no-strong-intra-smoothing / max-tu-size=32 / tu-inter-depth=1 / tu-intra-depth=1 / limit-tu=0 / qg-size=32 / qpmax=69 / qpmin=0 / ----- / cpuid=533541049583 / frame-threads=5 / numa-pools=+ / log-level=2 / input-csp=1 / input-res=1920x816 / interlace=0 / level-idc=0 / high-tier=1 / uhd-bd=0 / no-allow-non-conformance / no-repeat-headers / aud / no-hrd / info / hash=0 / no-temporal-layers / lookahead-slices=0 / no-splice / no-intra-refresh / no-ssim-rd / signhide / no-tskip / max-merge=3 / temporal-mvp / no-frame-dup / no-hme / no-analyze-src-pics / no-sao-non-deblock / selective-sao=4 / early-skip / rskip / no-fast-intra / no-tskip-fast / no-splitrd-skip / zone-count=0 / no-strict-cbr / no-rc-grain / no-const-vbv / sar=0 / overscan=0 / videoformat=5 / range=0 / colorprim=2 / transfer=2 / colormatrix=2 / chromaloc=0 / display-window=0 / cll=0,0 / min-luma=0 / max-luma=1023 / log2-max-poc-lsb=8 / vui-timing-info / vui-hrd-info / slices=1 / no-opt-qp-pps / no-opt-ref-list-length-pps / no-multi-pass-opt-rps / scenecut-bias=0.05 / hist-threshold=0.03 / no-opt-cu-delta-qp / no-aq-motion / no-hdr10 / no-hdr10-opt / no-dhdr10-opt / no-idr-recovery-sei / analysis-reuse-level=0 / analysis-save-reuse-level=0 / analysis-load-reuse-level=0 / scale-factor=0 / refine-intra=0 / refine-inter=0 / refine-mv=1 / refine-ctu-distortion=0 / no-limit-sao / ctu-info=0 / no-lowpass-dct / refine-analysis-type=0 / copy-pic=1 / max-ausize-factor=1.0 / no-dynamic-refine / no-single-sei / no-hevc-aq / no-svt / no-field / qp-adaptation-range=1.00 / scenecut-aware-qp=0conformance-window-offsets / right=0 / bottom=0 / NTMzNTQ= / decoder-max-rate=0 / no-vbv-live-multi-pass

  36. Language : English

  37. Default : Yes

  38. Forced : No


  39. Audio

  40. ID : 2

  41. ID in the original source medium : 4352 (0x1100)

  42. Format : DTS

  43. Format/Info : Digital Theater Systems

  44. Codec ID : A_DTS

  45. Duration : 1 h 49 min

  46. Bit rate mode : Constant

  47. Bit rate : 1 509 kb/s

  48. Channel(s) : 6 channels

  49. Channel layout : C L R Ls Rs LFE

  50. Sampling rate : 48.0 kHz

  51. Frame rate : 93.750 FPS (512 SPF)

  52. Bit depth : 16 bits

  53. Compression mode : Lossy

  54. Stream size : 1.15 GiB (18%)

  55. Title : Mandarin

  56. Language : Chinese

  57. Default : Yes

  58. Forced : No

  59. Original source medium : Blu-ray


  60. Text #1

  61. ID : 3

  62. ID in the original source medium : 4608 (0x1200)

  63. Format : PGS

  64. Muxing mode : zlib

  65. Codec ID : S_HDMV/PGS

  66. Codec ID/Info : Picture based subtitle format used on BDs/HD-DVDs

  67. Duration : 1 h 45 min

  68. Bit rate : 43.0 kb/s

  69. Count of elements : 2738

  70. Stream size : 32.3 MiB (0%)

  71. Title : cht

  72. Language : Chinese

  73. Default : No

  74. Forced : No

  75. Original source medium : Blu-ray


  76. Text #2

  77. ID : 4

  78. ID in the original source medium : 4609 (0x1201)

  79. Format : PGS

  80. Muxing mode : zlib

  81. Codec ID : S_HDMV/PGS

  82. Codec ID/Info : Picture based subtitle format used on BDs/HD-DVDs

  83. Duration : 1 h 45 min

  84. Bit rate : 43.2 kb/s

  85. Count of elements : 2738

  86. Stream size : 32.5 MiB (0%)

  87. Title : chs

  88. Language : Chinese

  89. Default : Yes

  90. Forced : No

  91. Original source medium : Blu-ray


  92. Text #3

  93. ID : 5

  94. ID in the original source medium : 4610 (0x1202)

  95. Format : PGS

  96. Muxing mode : zlib

  97. Codec ID : S_HDMV/PGS

  98. Codec ID/Info : Picture based subtitle format used on BDs/HD-DVDs

  99. Duration : 1 h 47 min

  100. Bit rate : 60.5 kb/s

  101. Count of elements : 2788

  102. Stream size : 46.4 MiB (1%)

  103. Language : English

  104. Default : No

  105. Forced : No

  106. Original source medium : Blu-ray


  107. Text #4

  108. ID : 6

  109. ID in the original source medium : 4613 (0x1205)

  110. Format : PGS

  111. Muxing mode : zlib

  112. Codec ID : S_HDMV/PGS

  113. Codec ID/Info : Picture based subtitle format used on BDs/HD-DVDs

  114. Duration : 1 h 47 min

  115. Bit rate : 45.3 kb/s

  116. Count of elements : 3234

  117. Stream size : 35.0 MiB (1%)

  118. Title : chs&en

  119. Language : Chinese

  120. Default : No

  121. Forced : No

  122. Original source medium : Blu-ray


  123. Text #5

  124. ID : 7

  125. ID in the original source medium : 4614 (0x1206)

  126. Format : PGS

  127. Muxing mode : zlib

  128. Codec ID : S_HDMV/PGS

  129. Codec ID/Info : Picture based subtitle format used on BDs/HD-DVDs

  130. Duration : 1 h 47 min

  131. Bit rate : 46.0 kb/s

  132. Count of elements : 3234

  133. Stream size : 35.5 MiB (1%)

  134. Title : cht&en

  135. Language : Chinese

  136. Default : No

  137. Forced : No

  138. Original source medium : Blu-ray


  139. Menu #1

  140. 00:00:00.000 : :第 01 章

  141. 00:12:25.161 : :第 02 章

  142. 00:22:31.100 : :第 03 章

  143. 00:32:54.639 : :第 04 章

  144. 00:46:11.477 : :第 05 章

  145. 00:55:55.435 : :第 06 章

  146. 01:06:26.149 : :第 07 章

  147. 01:17:57.006 : :第 08 章

  148. 01:29:28.530 : :第 09 章

  149. 01:40:47.500 : :第 10 章

  150. 01:51:37.566 : :第 11 章

  151. 02:04:18.159 : :第 12 章


  152. Menu #2

  153. 00:00:00.000 : en:第 01 章

  154. 00:14:19.500 : en:第 02 章

  155. 00:24:28.958 : en:第 03 章

  156. 00:38:39.083 : en:第 04 章

  157. 00:50:40.000 : en:第 05 章

  158. 01:04:35.458 : en:第 06 章

  159. 01:17:29.875 : en:第 07 章

  160. 01:34:45.458 : en:第 08 章


文件下载


除非特别注明,本文『那些年,我们一起追的女孩[国语配音/中文字幕].You.Are.The.Apple.of.My.Eye.2011.1080p.BluRay.x265.10bit.DTS 6.42GB』来源于互联网机器人自动抓取,非本站原创。 浮游电影网不对本文拥有版权,如有侵犯,请联系邮箱:fuyouu#yandex.com[#换成@]投诉。我们会在15个工作日内删除。 但烦请转载时请标明出处:“本文转载于『浮游电影网』,原文地址:https://www.fuyouu.com/18354.html

评论吧骚年!

发表你的见解   

昵称*

E-mail*(建议输入,以便收到博主回复的提示邮件)

验证码*

您可以使用eMule或eMule Mod(Windows)、aMule(Win、Linux、Mac)等软件下载eD2k链接。。
eMule收藏集(.emulecollection)文件是您选中的所有链接的列表文件。eMule可以直接下载它们。
按住SHIFT键选择可以选中多个选择框。
可用文件名和大小选择器来选择文件。
文件名选择器帮您根据文件名称或后缀来选择文件。不分大小写。
符号使用:
和:空格( )、+
不包含:-
或:|
转义:一对英文引号("");
匹配开头:^
匹配结尾:$
例如:
选中所有名称中包含有“eMule”或“0.49c”字眼,但不包含有“exe”字眼的:emule|0.49c -exe
选中所有名称的开头是“eMule”,结尾是“0.49c”的:^emule 0.49c$
选中所有名称中带有“eMule 0.49c”的(必须是“eMule 0.49c”,中间没有别的字符,不能是“eMule fake 0.49c”),需要转义:"emule 0.49c"
大小选择器帮您根据文件大小选择文件。