当前位置: 首页 >> 国产电影 >> 兰心大剧院[国语配音/中文字幕].Saturday.Fiction.2019.2160p.WEB-DL.H265.DDP5.1-bt9527.cc 15.44GB >> 正文

兰心大剧院[国语配音/中文字幕].Saturday.Fiction.2019.2160p.WEB-DL.H265.DDP5.1-bt9527.cc 15.44GB

2021年11月14日 22:48:37     电影发布:来源于网络     电影分类:国产电影     评论(0)    

兰心大剧院[国语配音/中文字幕].Saturday.Fiction.2019.2160p.WEB DL.H265.DDP5.1 bt9527.cc 15.44GB 剧情片 国产电影  第1张

◎译 名 兰心大剧院 / 礼拜六小说 / Saturday Fiction

◎年 代 2019

◎产 地 中国大陆

◎类 别 剧情

◎语 言 汉语普通话 / 英语 / 日语 / 法语

◎上映日期 2021-10-15(中国大陆) / 2019-09-04(威尼斯电影节)

◎IMDb链接 https://www.imdb.com/title/tt8499638/

◎豆瓣评分 7.2/10 (88489人评价)

◎豆瓣链接 https://movie.douban.com/subject/26954859/

◎片 长 126分钟(威尼斯电影节)

◎导 演 娄烨 Ye Lou (id:1274263)

◎编 剧 马英力 Yingli Ma (id:1328557)

虹影 Hong Ying (id:1359246)

横光利一 Riichi Yokomitsu (id:1424657)

◎演 员 巩俐 Li Gong (id:1035641)

赵又廷 Mark Chao (id:1274608)

小田切让 J? Odagiri (id:1007189)

帕斯卡尔·格雷戈里 Pascal Greggory (id:1050264)

汤姆·拉斯齐哈 Tom Wlaschiha (id:1018504)

黄湘丽 Xiangli Huang (id:1319023)

中岛步 Ayumu Nakajima (id:1380057)

王传君 Chuanjun Wang (id:1313837)

张颂文 Songwen Zhang (id:1314329)

曹苏苏 Susu Cao (id:1420238)

李伟龙 Weilong Li (id:1425576)

姜健 Jian Jiang (id:1447084)

涩谷天马 Tenma Shibuya (id:1314962)

中泉英雄 Hideo Nakaizumi (id:1313655)

吴毅 Yi Wu (id:1410561)

娄烨 Ye Lou (id:1274263)

常继红 Jihong Chang (id:1400345)

徐乐 Le Xu (id:1411977)

马英力 Yingli Ma (id:1328557)

曾剑 Jian Zeng (id:1314253)

娄烨 Ye Lou (id:1274263)

封山育林 Feng Shan Yu Lin (id:1456114)

钟诚 Cheng Zhong (id:1411974)

迈琳琳 Linlin Mai (id:1411975)

富康 Kang Fu (id:1325306)

王磊 Lei Wang (id:1413908)

杨德毅 Jacky Yeung (id:1164248)

◎标 签 文艺 / 黑白 / 剧情 / 历史 / 中国大陆 / 二战 / 2019 / 政治

◎简 介

电影根据虹影《上海之死》及横光利一《上海》改编。

1941年。著名演员于堇返回孤岛时期的上海,表面上是为了出演她的旧爱执导的话剧《礼拜六小说》。但是她真正的目的是什么?是为了救出她的前夫?为了给盟军搜集情报?为了给养父工作?还是为了和自己的爱人一起逃离战争?她真正的使命是什么?随着她着手执行任务,敌我越来越难以分辨,一个女人的命运被时代紧紧牵引,她又如何做出改变世界格局的选择? 戏里戏外,谁能幸免?

◎获奖情况 (共2项)

第76届威尼斯电影节 (2019)

主竞赛单元 金狮奖 (提名)

└──娄烨 (id:1274263)

第5届豆瓣电影年度榜单 (2018)

最值得期待的华语电影(提名)

  1. ##### MediaInfo ######

  2. General

  3. Unique ID : 82653323239388116597842094279900784820 (0x3E2E73763E0C75C03A29321CCD93E8B4)

  4. Complete name : 兰心大剧院[email protected].mkv

  5. Format : Matroska

  6. Format version : Version 4

  7. File size : 15.4 GiB

  8. Duration : 2 h 7 min

  9. Overall bit rate : 17.4 Mb/s

  10. Encoded date : UTC 2021-11-14 06:17:05

  11. Writing application : mkvmerge v61.0.0 ('So') 64-bit

  12. Writing library : libebml v1.4.2 + libmatroska v1.6.4


  13. Video

  14. ID : 1

  15. Format : HEVC

  16. Format/Info : High Efficiency Video Coding

  17. Format profile : [email protected]@Main

  18. Codec ID : V_MPEGH/ISO/HEVC

  19. Duration : 2 h 7 min

  20. Bit rate : 16.9 Mb/s

  21. Width : 3 840 pixels

  22. Height : 2 072 pixels

  23. Display aspect ratio : 1.85:1

  24. Frame rate mode : Constant

  25. Frame rate : 25.000 FPS

  26. Color space : YUV

  27. Chroma subsampling : 4:2:0

  28. Bit depth : 8 bits

  29. Bits/(Pixel*Frame) : 0.085

  30. Stream size : 15.0 GiB (97%)

  31. Default : Yes

  32. Forced : No


  33. Audio #1

  34. ID : 2

  35. Format : E-AC-3

  36. Format/Info : Enhanced AC-3

  37. Commercial name : Dolby Digital Plus

  38. Codec ID : A_EAC3

  39. Duration : 2 h 7 min

  40. Bit rate mode : Constant

  41. Bit rate : 256 kb/s

  42. Channel(s) : 6 channels

  43. Channel layout : L R C LFE Ls Rs

  44. Sampling rate : 48.0 kHz

  45. Frame rate : 31.250 FPS (1536 SPF)

  46. Compression mode : Lossy

  47. Stream size : 233 MiB (1%)

  48. Language : Chinese

  49. Service kind : Complete Main

  50. Default : Yes

  51. Forced : No


  52. Audio #2

  53. ID : 3

  54. Format : AAC LC

  55. Format/Info : Advanced Audio Codec Low Complexity

  56. Codec ID : A_AAC-2

  57. Duration : 2 h 7 min

  58. Bit rate : 192 kb/s

  59. Channel(s) : 2 channels

  60. Channel layout : L R

  61. Sampling rate : 44.1 kHz

  62. Frame rate : 43.066 FPS (1024 SPF)

  63. Compression mode : Lossy

  64. Stream size : 173 MiB (1%)

  65. Language : Chinese

  66. Default : Yes

  67. Forced : No




复制代码



文件下载


除非特别注明,本文『兰心大剧院[国语配音/中文字幕].Saturday.Fiction.2019.2160p.WEB-DL.H265.DDP5.1-bt9527.cc 15.44GB』来源于互联网机器人自动抓取,非本站原创。 浮游电影网不对本文拥有版权,如有侵犯,请联系邮箱:fuyouu#yandex.com[#换成@]投诉。我们会在15个工作日内删除。 但烦请转载时请标明出处:“本文转载于『浮游电影网』,原文地址:https://www.fuyouu.com/18124.html

评论吧骚年!

发表你的见解   

昵称*

E-mail*(建议输入,以便收到博主回复的提示邮件)

验证码*

您可以使用eMule或eMule Mod(Windows)、aMule(Win、Linux、Mac)等软件下载eD2k链接。。
eMule收藏集(.emulecollection)文件是您选中的所有链接的列表文件。eMule可以直接下载它们。
按住SHIFT键选择可以选中多个选择框。
可用文件名和大小选择器来选择文件。
文件名选择器帮您根据文件名称或后缀来选择文件。不分大小写。
符号使用:
和:空格( )、+
不包含:-
或:|
转义:一对英文引号("");
匹配开头:^
匹配结尾:$
例如:
选中所有名称中包含有“eMule”或“0.49c”字眼,但不包含有“exe”字眼的:emule|0.49c -exe
选中所有名称的开头是“eMule”,结尾是“0.49c”的:^emule 0.49c$
选中所有名称中带有“eMule 0.49c”的(必须是“eMule 0.49c”,中间没有别的字符,不能是“eMule fake 0.49c”),需要转义:"emule 0.49c"
大小选择器帮您根据文件大小选择文件。