当前位置: 首页 >> 欧美电影 >> 黑寡妇[简繁字幕].Black.Widow.2021.IMAX.2160p.DSNP.WEB-DL.HDR10.HEVC.Atmos.DDP5.1 16.08GB >> 正文

黑寡妇[简繁字幕].Black.Widow.2021.IMAX.2160p.DSNP.WEB-DL.HDR10.HEVC.Atmos.DDP5.1 16.08GB

2021年11月14日 22:45:46     电影发布:来源于网络     电影分类:欧美电影     评论(0)    

黑寡妇[简繁字幕].Black.Widow.2021.IMAX.2160p.DSNP.WEB DL.HDR10.HEVC.Atmos.DDP5.1 16.08GB 科幻片 冒险片 动作片 欧美电影  第1张

◎译 名 黑寡妇 / The Black Widow

◎片 名 Black Widow

◎年 代 2021

◎产 地 美国

◎类 别 动作 / 科幻 / 冒险

◎语 言 英语 / 俄语 / 挪威语 / 匈牙利语 / 马其顿语 / 芬兰语

◎上映日期 2021(中国大陆) / 2021-07-07(中国香港) / 2021-07-09(美国/美国网络)

◎IMDb链接 https://www.imdb.com/title/tt3480822/

◎豆瓣评分 6.3/10 (132372人评价)

◎豆瓣链接 https://movie.douban.com/subject/25828589/

◎片 长 133分钟

◎导 演 凯特·绍特兰 Cate Shortland (id:1023398)

◎编 剧 雅克·舍费尔 Jac Schaeffer (id:1314894)

内德·本森 Ned Benson (id:1000957)

埃里克·皮尔森 Eric Pearson (id:1383481)

斯坦·李 Stan Lee (id:1013888)

唐·赫克 Don Heck (id:1015145)

唐·里科 Don Rico (id:1412639)

◎演 员 斯嘉丽·约翰逊 Scarlett Johansson (id:1054453)

弗洛伦丝·皮尤 Florence Pugh (id:1378921)

蕾切尔·薇兹 Rachel Weisz (id:1018989)

大卫·哈伯 David Harbour (id:1225637)

艾尔·安德森 Ever Anderson (id:1367802)

维奥莱特·麦格劳 Violet McGraw (id:1402642)

欧嘉·柯瑞兰寇 Olga Kurylenko (id:1035654)

O·T·法格本 O.T. Fagbenle (id:1338901)

威廉·赫特 William Hurt (id:1031849)

雷·温斯顿 Ray Winstone (id:1006977)

赖恩·基拉·阿姆斯特朗 Ryan Kiera Armstrong (id:1421167)

米歇尔·李 Michelle Lee (id:1318105)

拉娜·布隆代尔 Nanna Blondell (id:1235341)

Claudia Heinz Claudia Heinz (id:1454076)

露西·詹·穆雷 Lucy Jayne Murray (id:1393953)

乔治亚·柯蒂斯 Georgia Curtis (id:1442792)

约恩·巴特勒 Ione Butler (id:1363756)

库尔特·岳 Kurt Yue (id:1374220)

奥利维尔·里希特斯 Olivier Richters (id:1421821)

安得烈·拜伦 Andrew Byron (id:1195416)

卡利·内勒 Cali Nelle (id:1346575)

罗伯特·普拉尔戈 Robert Pralgo (id:1174082)

贾辛特·布兰肯希普 Jacinte Blankenship (id:1430644)

乔希·亨利 Josh Henry (id:1194092)

阿里娅·布鲁克斯 Aria Brooks (id:1393080)

泰·赫尔利 Ty Hurley (id:1369268)

马里安·洛伦西克 Marian Lorencik (id:1397362)

茱莉亚·路易斯-德瑞弗斯 Julia Louis-Dreyfus (id:1055305)

亚当·普里克特 Adam Prickett (id:1332709)

史蒂芬·萨姆森 Stephen Samson (id:1145184)

乔基姆·斯卡利 Joakim Skarli (id:1432182)

利亚尼·塞缪尔 Liani Samuel (id:1459422)

西蒙娜·齐夫科夫斯卡 Simona Zivkovska (id:1459424)

刘易斯·扬 Lewis Young (id:1459423)

凯文·费奇 Kevin Feige (id:1340830)

斯嘉丽·约翰逊 Scarlett Johansson (id:1054453)

洛内·巴尔菲 Lorne Balfe (id:1032847)

加布里尔·贝瑞斯坦 Gabriel Beristain (id:1045610)

玛丽亚·朱科维克 Maria Djurkovic (id:1282498)

◎标 签 漫威 / 斯嘉丽·约翰逊 / 黑寡妇 / 超级英雄 / 美国 / 科幻 / 动作 / 2021

◎简 介

一部充满动作戏的间谍惊悚片。娜塔莎·罗曼诺夫/黑寡妇遭遇与她的过去相关的一场危险阴谋,将直面自己那些更为黑暗的经历。一股不惜一切要击倒她的力量袭来,娜塔莎必须面对自己在成为复仇者的很久之前那作为间谍的过往,和曾远离的破碎关系。

◎获奖情况 (共2项)

第7届豆瓣电影年度榜单 (2020)

最值得期待的外语电影

第6届豆瓣电影年度榜单 (2019)

最值得期待的外语电影

  1. ##### MediaInfo ######

  2. General

  3. Unique ID : 168307710506571224320624109245260085403 (0x7E9EE2CDDAAF3CB67C32AB557CC3B89B)

  4. Complete name : Black.[email protected]BBQDDQ.COM.mkv

  5. Format : Matroska

  6. Format version : Version 4

  7. File size : 16.1 GiB

  8. Duration : 2 h 13 min

  9. Overall bit rate : 17.2 Mb/s

  10. Movie name : Black Widow_IMAX

  11. Encoded date : UTC 2021-11-13 11:19:37

  12. Writing application : mkvmerge v61.0.0 ('So') 64-bit

  13. Writing library : libebml v1.4.2 + libmatroska v1.6.4


  14. Video

  15. ID : 1

  16. Format : HEVC

  17. Format/Info : High Efficiency Video Coding

  18. Format profile : Main [email protected]@High

  19. HDR format : SMPTE ST 2086, HDR10 compatible

  20. Codec ID : V_MPEGH/ISO/HEVC

  21. Duration : 2 h 13 min

  22. Bit rate : 16.4 Mb/s

  23. Width : 3 840 pixels

  24. Height : 2 160 pixels

  25. Display aspect ratio : 16:9

  26. Frame rate mode : Constant

  27. Frame rate : 23.976 (24000/1001/53354) FPS

  28. Color space : YUV

  29. Chroma subsampling : 4:2:0

  30. Bit depth : 10 bits

  31. Bits/(Pixel*Frame) : 0.082

  32. Stream size : 15.3 GiB (95%)

  33. Default : Yes

  34. Forced : No

  35. Color range : Limited

  36. Color primaries : BT.2020

  37. Transfer characteristics : PQ

  38. Matrix coefficients : BT.2020 non-constant

  39. Mastering display color primaries : Display P3

  40. Mastering display luminance : min: 0.0000 cd/m2, max: 1000 cd/m2


  41. Audio

  42. ID : 2

  43. Format : E-AC-3 JOC

  44. Format/Info : Enhanced AC-3 with Joint Object Coding

  45. Commercial name : Dolby Digital Plus with Dolby Atmos

  46. Codec ID : A_EAC3

  47. Duration : 2 h 13 min

  48. Bit rate mode : Constant

  49. Bit rate : 768 kb/s

  50. Channel(s) : 6 channels

  51. Channel layout : L R C LFE Ls Rs

  52. Sampling rate : 48.0 kHz

  53. Frame rate : 31.250 FPS (1536 SPF)

  54. Compression mode : Lossy

  55. Stream size : 735 MiB (4%)

  56. Title : English

  57. Language : English

  58. Service kind : Complete Main

  59. Default : No

  60. Forced : No

  61. Complexity index : 16

  62. Number of dynamic objects : 15

  63. Bed channel count : 1 channel

  64. Bed channel configuration : LFE


  65. Text #1

  66. ID : 3

  67. Format : UTF-8

  68. Codec ID : S_TEXT/UTF8

  69. Codec ID/Info : UTF-8 Plain Text

  70. Duration : 2 h 13 min

  71. Bit rate : 46 b/s

  72. Count of elements : 1630

  73. Stream size : 45.7 KiB (0%)

  74. Title : English [SDH]

  75. Language : English

  76. Default : No

  77. Forced : No


  78. Text #2

  79. ID : 4

  80. Format : UTF-8

  81. Codec ID : S_TEXT/UTF8

  82. Codec ID/Info : UTF-8 Plain Text

  83. Duration : 2 h 12 min

  84. Bit rate : 39 b/s

  85. Count of elements : 1306

  86. Stream size : 38.8 KiB (0%)

  87. Title : English

  88. Language : English

  89. Default : No

  90. Forced : No


  91. Text #3

  92. ID : 5

  93. Format : UTF-8

  94. Codec ID : S_TEXT/UTF8

  95. Codec ID/Info : UTF-8 Plain Text

  96. Duration : 2 h 12 min

  97. Bit rate : 43 b/s

  98. Count of elements : 1319

  99. Stream size : 42.7 KiB (0%)

  100. Title : French Canadian

  101. Language : French

  102. Default : No

  103. Forced : No


  104. Text #4

  105. ID : 6

  106. Format : UTF-8

  107. Codec ID : S_TEXT/UTF8

  108. Codec ID/Info : UTF-8 Plain Text

  109. Duration : 2 h 12 min

  110. Bit rate : 33 b/s

  111. Count of elements : 1256

  112. Stream size : 32.4 KiB (0%)

  113. Title : French

  114. Language : French

  115. Default : No

  116. Forced : No


  117. Text #5

  118. ID : 7

  119. Format : UTF-8

  120. Codec ID : S_TEXT/UTF8

  121. Codec ID/Info : UTF-8 Plain Text

  122. Duration : 2 h 12 min

  123. Bit rate : 36 b/s

  124. Count of elements : 1277

  125. Stream size : 35.0 KiB (0%)

  126. Title : European Spanish

  127. Language : Spanish

  128. Default : No

  129. Forced : No


  130. Text #6

  131. ID : 8

  132. Format : UTF-8

  133. Codec ID : S_TEXT/UTF8

  134. Codec ID/Info : UTF-8 Plain Text

  135. Duration : 2 h 12 min

  136. Bit rate : 40 b/s

  137. Count of elements : 1301

  138. Stream size : 39.4 KiB (0%)

  139. Title : Spanish

  140. Language : Spanish

  141. Default : No

  142. Forced : No


  143. Text #7

  144. ID : 9

  145. Format : UTF-8

  146. Codec ID : S_TEXT/UTF8

  147. Codec ID/Info : UTF-8 Plain Text

  148. Duration : 2 h 12 min

  149. Bit rate : 28 b/s

  150. Count of elements : 1287

  151. Stream size : 27.6 KiB (0%)

  152. Title : Mandarin (Guoyu)

  153. Language : Chinese

  154. Default : No

  155. Forced : No


  156. Text #8

  157. ID : 10

  158. Format : UTF-8

  159. Codec ID : S_TEXT/UTF8

  160. Codec ID/Info : UTF-8 Plain Text

  161. Duration : 2 h 12 min

  162. Bit rate : 33 b/s

  163. Count of elements : 1367

  164. Stream size : 32.4 KiB (0%)

  165. Title : Chinese Simplified

  166. Language : Chinese

  167. Default : No

  168. Forced : No


  169. Text #9

  170. ID : 11

  171. Format : UTF-8

  172. Codec ID : S_TEXT/UTF8

  173. Codec ID/Info : UTF-8 Plain Text

  174. Duration : 2 h 12 min

  175. Bit rate : 30 b/s

  176. Count of elements : 1309

  177. Stream size : 30.1 KiB (0%)

  178. Title : Chinese Traditional

  179. Language : Chinese

  180. Default : No

  181. Forced : No


  182. Text #10

  183. ID : 12

  184. Format : ASS

  185. Codec ID : S_TEXT/ASS

  186. Codec ID/Info : Advanced Sub Station Alpha

  187. Duration : 2 h 12 min

  188. Bit rate : 79 b/s

  189. Count of elements : 1373

  190. Compression mode : Lossless

  191. Stream size : 76.8 KiB (0%)

  192. Language : Chinese

  193. Default : Yes

  194. Forced : No


  195. Text #11

  196. ID : 13

  197. Format : ASS

  198. Codec ID : S_TEXT/ASS

  199. Codec ID/Info : Advanced Sub Station Alpha

  200. Duration : 2 h 12 min

  201. Bit rate : 79 b/s

  202. Count of elements : 1373

  203. Compression mode : Lossless

  204. Stream size : 76.8 KiB (0%)

  205. Language : Chinese

  206. Default : Yes

  207. Forced : No


  208. Text #12

  209. ID : 14

  210. Format : ASS

  211. Codec ID : S_TEXT/ASS

  212. Codec ID/Info : Advanced Sub Station Alpha

  213. Duration : 2 h 12 min

  214. Bit rate : 209 b/s

  215. Count of elements : 1373

  216. Compression mode : Lossless

  217. Stream size : 204 KiB (0%)

  218. Language : Chinese

  219. Default : Yes

  220. Forced : No


  221. Text #13

  222. ID : 15

  223. Format : ASS

  224. Codec ID : S_TEXT/ASS

  225. Codec ID/Info : Advanced Sub Station Alpha

  226. Duration : 2 h 12 min

  227. Bit rate : 209 b/s

  228. Count of elements : 1373

  229. Compression mode : Lossless

  230. Stream size : 204 KiB (0%)

  231. Language : Chinese

  232. Default : Yes

  233. Forced : No


  234. Text #14

  235. ID : 16

  236. Format : PGS

  237. Muxing mode : zlib

  238. Codec ID : S_HDMV/PGS

  239. Codec ID/Info : Picture based subtitle format used on BDs/HD-DVDs

  240. Duration : 2 h 12 min

  241. Bit rate : 25.7 kb/s

  242. Count of elements : 2345

  243. Stream size : 24.4 MiB (0%)

  244. Language : Chinese

  245. Default : Yes

  246. Forced : No


  247. Text #15

  248. ID : 17

  249. Format : PGS

  250. Muxing mode : zlib

  251. Codec ID : S_HDMV/PGS

  252. Codec ID/Info : Picture based subtitle format used on BDs/HD-DVDs

  253. Duration : 2 h 12 min

  254. Bit rate : 26.3 kb/s

  255. Count of elements : 2345

  256. Stream size : 24.9 MiB (0%)

  257. Language : Chinese

  258. Default : Yes

  259. Forced : No


  260. Text #16

  261. ID : 18

  262. Format : PGS

  263. Muxing mode : zlib

  264. Codec ID : S_HDMV/PGS

  265. Codec ID/Info : Picture based subtitle format used on BDs/HD-DVDs

  266. Duration : 2 h 12 min

  267. Bit rate : 40.7 kb/s

  268. Count of elements : 2345

  269. Stream size : 38.7 MiB (0%)

  270. Language : Chinese

  271. Default : Yes

  272. Forced : No


  273. Text #17

  274. ID : 19

  275. Format : PGS

  276. Muxing mode : zlib

  277. Codec ID : S_HDMV/PGS

  278. Codec ID/Info : Picture based subtitle format used on BDs/HD-DVDs

  279. Duration : 2 h 12 min

  280. Bit rate : 41.2 kb/s

  281. Count of elements : 2345

  282. Stream size : 39.2 MiB (0%)

  283. Language : Chinese

  284. Default : Yes

  285. Forced : No




复制代码



文件下载



除非特别注明,本文『黑寡妇[简繁字幕].Black.Widow.2021.IMAX.2160p.DSNP.WEB-DL.HDR10.HEVC.Atmos.DDP5.1 16.08GB』来源于互联网机器人自动抓取,非本站原创。 浮游电影网不对本文拥有版权,如有侵犯,请联系邮箱:fuyouu#yandex.com[#换成@]投诉。我们会在15个工作日内删除。 但烦请转载时请标明出处:“本文转载于『浮游电影网』,原文地址:https://www.fuyouu.com/18122.html

评论吧骚年!

发表你的见解   

昵称*

E-mail*(建议输入,以便收到博主回复的提示邮件)

验证码*

您可以使用eMule或eMule Mod(Windows)、aMule(Win、Linux、Mac)等软件下载eD2k链接。。
eMule收藏集(.emulecollection)文件是您选中的所有链接的列表文件。eMule可以直接下载它们。
按住SHIFT键选择可以选中多个选择框。
可用文件名和大小选择器来选择文件。
文件名选择器帮您根据文件名称或后缀来选择文件。不分大小写。
符号使用:
和:空格( )、+
不包含:-
或:|
转义:一对英文引号("");
匹配开头:^
匹配结尾:$
例如:
选中所有名称中包含有“eMule”或“0.49c”字眼,但不包含有“exe”字眼的:emule|0.49c -exe
选中所有名称的开头是“eMule”,结尾是“0.49c”的:^emule 0.49c$
选中所有名称中带有“eMule 0.49c”的(必须是“eMule 0.49c”,中间没有别的字符,不能是“eMule fake 0.49c”),需要转义:"emule 0.49c"
大小选择器帮您根据文件大小选择文件。