当前位置: 首页 >> 日韩电影 >> 铁雨2:首脑峰会[中文字幕].Steel.Rain.2.2020.1080p.WEB-DL.H264.AAC-bt9527.cc 3.44GB >> 正文

铁雨2:首脑峰会[中文字幕].Steel.Rain.2.2020.1080p.WEB-DL.H264.AAC-bt9527.cc 3.44GB

2021年11月14日 22:35:44     电影发布:来源于网络     电影分类:日韩电影     评论(0)    

铁雨2:首脑峰会[中文字幕].Steel.Rain.2.2020.1080p.WEB DL.H264.AAC bt9527.cc 3.44GB 惊悚片 日韩电影  第1张

◎译 名 铁雨2:首脑峰会 / 铁雨2:首脑会谈 / 钢铁雨2:核战危机(港) / 钢铁雨:深潜行动(台) / 铁雨2:顶上会谈 / 铁雨2 / 钢铁雨2 / ???2-???? / Steel Rain 2

◎片 名 ???2: ????

◎年 代 2020

◎产 地 韩国

◎类 别 惊悚

◎语 言 韩语 / 汉语普通话 / 日语 / 英语 / 俄语

◎上映日期 2020-07-29(韩国)

◎IMDb链接 https://www.imdb.com/title/tt10516176/

◎豆瓣评分 5.8/10 (17622人评价)

◎豆瓣链接 https://movie.douban.com/subject/30479644/

◎片 长 132分钟

◎导 演 杨宇硕 Woo-seok Yang (id:1338840)

◎编 剧 杨宇硕 Woo-seok Yang (id:1338840)

◎演 员 郑雨盛 Woo-sung Jung (id:1032365)

郭度沅 Do-Won Kwak (id:1320516)

柳演锡 Yeon-Seok Yoo (id:1321213)

安古斯·麦克菲登 Angus Macfadyen (id:1049554)

徐东甲 Dong-gab Seo (id:1392034)

李南希 Namhee Lee (id:1443334)

金重熙 Joong-hee Kim (id:1399058)

柳秀荣 Soo-yeong Ryoo (id:1275603)

李泰亨 Tae-hyung Lee (id:1379903)

申正根 Jeong-geun Sin (id:1321885)

廉晶雅 Jung-ah Yum (id:1023421)

金容琳 Yong-rim Kim (id:1345363)

金明坤 Myung-gon Kim (id:1314314)

张光 Gwang Jang (id:1320452)

李在勇 Lee Jae Yong (id:1319065)

安内相 Nae-sang Ahn (id:1322622)

孙钟学 Jong-Hak Son (id:1350939)

白龙 Hakuryu (id:1029800)

寇比·法兰奇 Colby French (id:1350065)

斯科特·洛威尔 Scott Lowell (id:1122964)

克里斯汀·达尔顿 Kristen Dalton (id:1004896)

金胜泰 Seungtae Kim (id:1443346)

郑镇珏 Jingak Jung (id:1443347)

俞成柱 Sung-joo Yoo (id:1421197)

金重基 Jung-ki Kim (id:1343347)

申秀妍 Soo-yun Shin (id:1406115)

沈熙燮 Hee-seop Sim (id:1332623)

加里森·迈克尔·法卡尔森-基纳 Garrison Michael Farquharson-Keener (id:1455736)

洪仁雅 Hong In-Ah (id:1463239)

◎标 签 韩国 / 政治 / 朝鲜半岛 / 战争 / 2020 / 剧情 / 军事 / 动作

◎简 介

《铁雨2》将围绕韩半岛统一的各方势力各自不同的强硬立场展开故事。

◎获奖情况 (共5项)

第41届韩国电影青龙奖 (2020)

最佳导演(提名)

└──杨宇硕 (id:1338840)

最佳男配角(提名)

最佳照明(提名)

第57届百想艺术大赏 (2021)

电影类 最佳男配角(提名)

└──申正根 (id:1321885)

电影类 最佳新人男演员(提名)

└──柳秀荣 (id:1275603)

  1. ##### MediaInfo ######

  2. General

  3. Unique ID : 164774292111196404176043493409404424646 (0x7BF65FD3B63AF511D58562D1C6DF11C6)

  4. Complete name : [email protected]

  5. Format : Matroska

  6. Format version : Version 4

  7. File size : 3.43 GiB

  8. Duration : 2 h 11 min

  9. Overall bit rate : 3 736 kb/s

  10. Encoded date : UTC 2021-11-13 03:46:39

  11. Writing application : mkvmerge v56.1.0 ('My Friend') 64-bit

  12. Writing library : libebml v1.4.2 + libmatroska v1.6.4


  13. Video

  14. ID : 1

  15. Format : AVC

  16. Format/Info : Advanced Video Codec

  17. Format profile : [email protected]

  18. Format settings : CABAC / 1 Ref Frames

  19. Format settings, CABAC : Yes

  20. Format settings, Reference frames : 1 frame

  21. Format settings, GOP : M=1, N=60

  22. Codec ID : V_MPEG4/ISO/AVC

  23. Duration : 2 h 11 min

  24. Bit rate mode : Constant

  25. Bit rate : 3 608 kb/s

  26. Nominal bit rate : 4 000 kb/s

  27. Width : 1 920 pixels

  28. Height : 1 080 pixels

  29. Display aspect ratio : 16:9

  30. Frame rate mode : Constant

  31. Frame rate : 29.970 (30000/1001/53354) FPS

  32. Color space : YUV

  33. Chroma subsampling : 4:2:0

  34. Bit depth : 8 bits

  35. Scan type : Progressive

  36. Bits/(Pixel*Frame) : 0.058

  37. Stream size : 3.32 GiB (97%)

  38. Language : English

  39. Default : Yes

  40. Forced : No


  41. Audio

  42. ID : 2

  43. Format : AAC LC

  44. Format/Info : Advanced Audio Codec Low Complexity

  45. Codec ID : A_AAC-2

  46. Duration : 2 h 11 min

  47. Bit rate : 125 kb/s

  48. Channel(s) : 2 channels

  49. Channel layout : L R

  50. Sampling rate : 48.0 kHz

  51. Frame rate : 46.875 FPS (1024 SPF)

  52. Compression mode : Lossy

  53. Stream size : 118 MiB (3%)

  54. Language : Korean

  55. Default : Yes

  56. Forced : No


  57. Text #1

  58. ID : 3

  59. Format : UTF-8

  60. Codec ID : S_TEXT/UTF8

  61. Codec ID/Info : UTF-8 Plain Text

  62. Duration : 2 h 7 min

  63. Bit rate : 48 b/s

  64. Count of elements : 1760

  65. Stream size : 44.8 KiB (0%)

  66. Title : Chinese Simplified

  67. Language : Chinese

  68. Default : Yes

  69. Forced : No


  70. Text #2

  71. ID : 4

  72. Format : UTF-8

  73. Codec ID : S_TEXT/UTF8

  74. Codec ID/Info : UTF-8 Plain Text

  75. Duration : 2 h 7 min

  76. Bit rate : 48 b/s

  77. Count of elements : 1760

  78. Stream size : 44.8 KiB (0%)

  79. Title : Chinese Traditional

  80. Language : Chinese

  81. Default : No

  82. Forced : No




复制代码



文件下载


除非特别注明,本文『铁雨2:首脑峰会[中文字幕].Steel.Rain.2.2020.1080p.WEB-DL.H264.AAC-bt9527.cc 3.44GB』来源于互联网机器人自动抓取,非本站原创。 浮游电影网不对本文拥有版权,如有侵犯,请联系邮箱:fuyouu#yandex.com[#换成@]投诉。我们会在15个工作日内删除。 但烦请转载时请标明出处:“本文转载于『浮游电影网』,原文地址:https://www.fuyouu.com/18118.html

评论吧骚年!

发表你的见解   

昵称*

E-mail*(建议输入,以便收到博主回复的提示邮件)

验证码*

您可以使用eMule或eMule Mod(Windows)、aMule(Win、Linux、Mac)等软件下载eD2k链接。。
eMule收藏集(.emulecollection)文件是您选中的所有链接的列表文件。eMule可以直接下载它们。
按住SHIFT键选择可以选中多个选择框。
可用文件名和大小选择器来选择文件。
文件名选择器帮您根据文件名称或后缀来选择文件。不分大小写。
符号使用:
和:空格( )、+
不包含:-
或:|
转义:一对英文引号("");
匹配开头:^
匹配结尾:$
例如:
选中所有名称中包含有“eMule”或“0.49c”字眼,但不包含有“exe”字眼的:emule|0.49c -exe
选中所有名称的开头是“eMule”,结尾是“0.49c”的:^emule 0.49c$
选中所有名称中带有“eMule 0.49c”的(必须是“eMule 0.49c”,中间没有别的字符,不能是“eMule fake 0.49c”),需要转义:"emule 0.49c"
大小选择器帮您根据文件大小选择文件。