当前位置: 首页 >> 欧美电影 >> 糖果人[简繁字幕].Candyman.2021.BluRay.1080p.TrueHD.Atmos.7.1.x265.10bit-bt9527.cc 5.94GB >> 正文

糖果人[简繁字幕].Candyman.2021.BluRay.1080p.TrueHD.Atmos.7.1.x265.10bit-bt9527.cc 5.94GB

2021年11月14日 22:34:16     电影发布:来源于网络     电影分类:欧美电影     评论(0)    

糖果人[简繁字幕].Candyman.2021.BluRay.1080p.TrueHD.Atmos.7.1.x265.10bit bt9527.cc 5.94GB 恐怖片 惊悚片 欧美电影  第1张

◎译 名 糖果人 / 糖魔怪客(港)

◎片 名 Candyman

◎年 代 2021

◎产 地 加拿大 / 美国

◎类 别 惊悚 / 恐怖

◎语 言 英语

◎上映日期 2021-08-27(美国)

◎IMDb链接 https://www.imdb.com/title/tt9347730/

◎豆瓣评分 5.4/10 (6412人评价)

◎豆瓣链接 https://movie.douban.com/subject/30389627/

◎片 长 91分钟

◎导 演 尼娅·达科斯塔 Nia DaCosta (id:1373998)

◎编 剧 乔丹·皮尔 Jordan Peele (id:1032808)

温·罗森菲尔德 Win Rosenfeld (id:1408092)

尼娅·达科斯塔 Nia DaCosta (id:1373998)

克莱夫·巴克 Clive Barker (id:1027915)

伯纳德·罗斯 Bernard Rose (id:1023009)

◎演 员 叶海亚·阿卜杜勒-迈丁 Yahya Abdul-Mateen II (id:1374708)

泰柔娜·派丽丝 Teyonah Parris (id:1342538)

内森·斯图尔特-贾瑞特 Nathan Stewart-Jarrett (id:1314887)

科尔曼·多明戈 Colman Domingo (id:1088744)

凯尔·卡明斯基 Kyle Kaminsky (id:1461236)

瓦妮莎·威廉姆斯 Vanessa Williams (id:1461237)

布莱恩·金 Brian King (id:1461238)

米里亚姆·莫斯 Miriam Moss (id:1461239)

瑞贝卡·斯宾塞 Rebecca Spence (id:1339746)

卡尔·克莱蒙斯-霍普金斯 Carl Clemons-Hopkins (id:1459569)

马力克·怀特 Malic White (id:1389217)

托尼·托德 Tony Todd (id:1036498)

纳迪娅·西姆斯 Nadia Simms (id:1410849)

Cassie Kramer Cassie Kramer (id:1461893)

约翰·古莱斯利安 John Guleserian (id:1003765)

◎标 签 恐怖 / 惊悚 / 美国 / 2021 / 悬疑 / 灵异 / 翻拍 / 电影

◎简 介

影片改编自恐怖小说大师克里夫·巴克的短篇作品,聚焦“糖果人,传说你对镜子说5次他的名字,他就会在倒影中出现,把你杀死”引发的故事。

  1. ##### MediaInfo ######

  2. General

  3. Unique ID : 53969497884211565486440163276475789350 (0x289A25AF48C1742C97CC4A0C2B7AF026)

  4. Complete name : [email protected]DDQ.COM.mkv

  5. Format : Matroska

  6. Format version : Version 4

  7. File size : 5.94 GiB

  8. Duration : 1 h 31 min

  9. Overall bit rate mode : Variable

  10. Overall bit rate : 9 338 kb/s

  11. Encoded date : UTC 2021-11-14 03:44:36

  12. Writing application : mkvmerge v49.0.0 ('Sick Of Losing Soulmates') 64-bit

  13. Writing library : libebml v1.4.0 + libmatroska v1.6.1


  14. Video

  15. ID : 1

  16. Format : HEVC

  17. Format/Info : High Efficiency Video Coding

  18. Format profile : Main [email protected]@High

  19. Codec ID : V_MPEGH/ISO/HEVC

  20. Duration : 1 h 31 min

  21. Bit rate : 4 270 kb/s

  22. Width : 1 920 pixels

  23. Height : 804 pixels

  24. Display aspect ratio : 2.40:1

  25. Frame rate mode : Constant

  26. Frame rate : 23.976 (24000/1001/53354) FPS

  27. Color space : YUV

  28. Chroma subsampling : 4:2:0

  29. Bit depth : 10 bits

  30. Bits/(Pixel*Frame) : 0.115

  31. Stream size : 2.71 GiB (46%)

  32. Title : HEVC, [email protected]@High, 24/1.001 fps @ 4270 kbps

  33. Writing library : x265 3.4+14-gd419c7152:[Windows][GCC 10.2.0][64 bit] 10bit

  34. Encoding settings : cpuid=533541111039 / frame-threads=4 / numa-pools=16 / wpp / pmode / pme / no-psnr / no-ssim / log-level=2 / input-csp=1 / input-res=1920x804 / interlace=0 / total-frames=130938 / level-idc=51 / high-tier=1 / uhd-bd=0 / ref=5 / no-allow-non-conformance / no-repeat-headers / annexb / no-aud / no-hrd / info / hash=0 / no-temporal-layers / open-gop / min-keyint=24 / keyint=240 / gop-lookahead=0 / bframes=6 / b-adapt=2 / b-pyramid / bframe-bias=0 / rc-lookahead=40 / lookahead-slices=0 / NTMzNTQ=uuDQuD2mJt9fsCf / scenecut=40 / hist-scenecut=0 / radl=0 / no-splice / no-intra-refresh / ctu=32 / min-cu-size=8 / no-rect / no-amp / max-tu-size=32 / tu-inter-depth=3 / tu-intra-depth=3 / limit-tu=4 / rdoq-level=2 / dynamic-rd=0.00 / no-ssim-rd / signhide / no-tskip / nr-intra=0 / nr-inter=0 / no-constrained-intra / no-strong-intra-smoothing / max-merge=4 / limit-refs=1 / limit-modes / me=3 / subme=4 / merange=25 / temporal-mvp / no-frame-dup / no-hme / weightp / weightb / no-analyze-src-pics / deblock=-3:-3 / no-sao / no-sao-non-deblock / rd=6 / selective-sao=0 / no-early-skip / rskip / no-fast-intra / no-tskip-fast / no-cu-lossless / b-intra / no-splitrd-skip / rdpenalty=0 / psy-rd=2.00 / psy-rdoq=1.00 / no-rd-refine / no-lossless / cbqpoffs=0 / crqpoffs=0 / rc=crf / crf=17.0 / qcomp=0.65 / qpstep=4 / stats-write=0 / stats-read=0 / vbv-maxrate=80000 / vbv-bufsize=80000 / vbv-init=0.9 / crf-max=0.0 / crf-min=0.0 / ipratio=1.40 / pbratio=1.30 / aq-mode=2 / aq-strength=0.85 / cutree / zone-count=0 / no-strict-cbr / qg-size=32 / no-rc-grain / qpmax=69 / qpmin=0 / no-const-vbv / sar=1 / overscan=0 / videoformat=5 / range=0 / colorprim=1 / transfer=1 / colormatrix=1 / chromaloc=0 / display-window=0 / cll=0,0 / min-luma=0 / max-luma=1023 / log2-max-poc-lsb=8 / vui-timing-info / vui-hrd-info / slices=1 / no-opt-qp-pps / no-opt-ref-list-length-pps / no-multi-pass-opt-rps / scenecut-bias=0.05 / hist-threshold=0.03 / no-opt-cu-delta-qp / no-aq-motion / no-hdr10 / no-hdr10-opt / no-dhdr10-opt / no-idr-recovery-sei / analysis-reuse-level=0 / analysis-save-reuse-level=0 / analysis-load-reuse-level=0 / scale-factor=0 / refine-intra=0 / refine-inter=0 / refine-mv=1 / refine-ctu-distortion=0 / no-limit-sao / ctu-info=0 / no-lowpass-dct / refine-analysis-type=0 / copy-pic=1 / max-ausize-factor=1.0 / no-dynamic-refine / no-single-sei / no-hevc-aq / no-svt / no-field / qp-adaptation-range=1.00 / no-scenecut-aware-qpconformance-window-offsets / right=0 / bottom=0 / NTMzNTQ= / decoder-max-rate=0

  35. Language : English

  36. Default : Yes

  37. Forced : No

  38. Color range : Limited

  39. Color primaries : BT.709

  40. Transfer characteristics : BT.709

  41. Matrix coefficients : BT.709


  42. Audio #1

  43. ID : 2

  44. Format : MLP FBA 16-ch

  45. Format/Info : Meridian Lossless Packing FBA with 16-channel presentation

  46. Commercial name : Dolby TrueHD with Dolby Atmos

  47. Codec ID : A_TRUEHD

  48. Duration : 1 h 31 min

  49. Bit rate mode : Variable

  50. Bit rate : 4 349 kb/s

  51. Maximum bit rate : 8 181 kb/s

  52. Channel(s) : 8 channels

  53. Channel layout : L R C LFE Ls Rs Lb Rb

  54. Sampling rate : 48.0 kHz

  55. Frame rate : 1 200.000 FPS (40 SPF)

  56. Compression mode : Lossless

  57. Stream size : 2.77 GiB (47%)

  58. Title : English Dolby TrueHD 7.1 (Atmos) @ 4797 kbps

  59. Language : English

  60. Default : Yes

  61. Forced : No

  62. Number of dynamic objects : 11

  63. Bed channel count : 1 channel

  64. Bed channel configuration : LFE


  65. Audio #2

  66. ID : 3

  67. Format : AC-3

  68. Format/Info : Audio Coding 3

  69. Commercial name : Dolby Digital

  70. Codec ID : A_AC3

  71. Duration : 1 h 31 min

  72. Bit rate mode : Constant

  73. Bit rate : 448 kb/s

  74. Channel(s) : 6 channels

  75. Channel layout : L R C LFE Ls Rs

  76. Sampling rate : 48.0 kHz

  77. Frame rate : 31.250 FPS (1536 SPF)

  78. Compression mode : Lossy

  79. Stream size : 292 MiB (5%)

  80. Title : English Dolby 5.1-EX 5.1 @ 448 kbps

  81. Language : English

  82. Service kind : Complete Main

  83. Default : No

  84. Forced : No


  85. Text #1

  86. ID : 4

  87. Format : PGS

  88. Codec ID : S_HDMV/PGS

  89. Codec ID/Info : Picture based subtitle format used on BDs/HD-DVDs

  90. Duration : 1 h 26 min

  91. Bit rate : 40.6 kb/s

  92. Count of elements : 2512

  93. Stream size : 25.0 MiB (0%)

  94. Title : Eng/SUP

  95. Language : English

  96. Default : No

  97. Forced : No


  98. Text #2

  99. ID : 5

  100. Format : PGS

  101. Codec ID : S_HDMV/PGS

  102. Codec ID/Info : Picture based subtitle format used on BDs/HD-DVDs

  103. Duration : 1 h 25 min

  104. Bit rate : 32.5 kb/s

  105. Count of elements : 1459

  106. Stream size : 20.0 MiB (0%)

  107. Title : Chs/SUP 简体

  108. Language : Chinese

  109. Default : Yes

  110. Forced : No


  111. Text #3

  112. ID : 6

  113. Format : PGS

  114. Codec ID : S_HDMV/PGS

  115. Codec ID/Info : Picture based subtitle format used on BDs/HD-DVDs

  116. Duration : 1 h 25 min

  117. Bit rate : 33.3 kb/s

  118. Count of elements : 1459

  119. Stream size : 20.5 MiB (0%)

  120. Title : Cht/SUP 繁体

  121. Language : Chinese

  122. Default : No

  123. Forced : No


  124. Text #4

  125. ID : 7

  126. Format : PGS

  127. Codec ID : S_HDMV/PGS

  128. Codec ID/Info : Picture based subtitle format used on BDs/HD-DVDs

  129. Duration : 1 h 25 min

  130. Bit rate : 53.1 kb/s

  131. Count of elements : 1461

  132. Stream size : 32.6 MiB (1%)

  133. Title : Chs/SUP 简英双语

  134. Language : Chinese

  135. Default : No

  136. Forced : No


  137. Text #5

  138. ID : 8

  139. Format : PGS

  140. Codec ID : S_HDMV/PGS

  141. Codec ID/Info : Picture based subtitle format used on BDs/HD-DVDs

  142. Duration : 1 h 25 min

  143. Bit rate : 53.8 kb/s

  144. Count of elements : 1461

  145. Stream size : 33.1 MiB (1%)

  146. Title : Cht/SUP 繁英双语

  147. Language : Chinese

  148. Default : No

  149. Forced : No


  150. Menu

  151. 00:00:00.000 : en:第 01 章

  152. 00:06:34.269 : en:第 02 章

  153. 00:12:45.515 : en:第 03 章

  154. 00:18:00.621 : en:第 04 章

  155. 00:21:03.888 : en:第 05 章

  156. 00:24:59.915 : en:第 06 章

  157. 00:30:13.311 : en:第 07 章

  158. 00:34:37.117 : en:第 08 章

  159. 00:38:23.760 : en:第 09 章

  160. 00:41:22.772 : en:第 10 章

  161. 00:46:14.480 : en:第 11 章

  162. 00:49:43.647 : en:第 12 章

  163. 00:53:53.313 : en:第 13 章

  164. 00:57:36.870 : en:第 14 章

  165. 01:00:56.027 : en:第 15 章

  166. 01:03:32.434 : en:第 16 章

  167. 01:08:56.132 : en:第 17 章

  168. 01:13:33.034 : en:第 18 章

  169. 01:20:20.399 : en:第 19 章

  170. 01:26:08.330 : en:第 20 章




复制代码



文件下载


除非特别注明,本文『糖果人[简繁字幕].Candyman.2021.BluRay.1080p.TrueHD.Atmos.7.1.x265.10bit-bt9527.cc 5.94GB』来源于互联网机器人自动抓取,非本站原创。 浮游电影网不对本文拥有版权,如有侵犯,请联系邮箱:fuyouu#yandex.com[#换成@]投诉。我们会在15个工作日内删除。 但烦请转载时请标明出处:“本文转载于『浮游电影网』,原文地址:https://www.fuyouu.com/18117.html

评论吧骚年!

发表你的见解   

昵称*

E-mail*(建议输入,以便收到博主回复的提示邮件)

验证码*

您可以使用eMule或eMule Mod(Windows)、aMule(Win、Linux、Mac)等软件下载eD2k链接。。
eMule收藏集(.emulecollection)文件是您选中的所有链接的列表文件。eMule可以直接下载它们。
按住SHIFT键选择可以选中多个选择框。
可用文件名和大小选择器来选择文件。
文件名选择器帮您根据文件名称或后缀来选择文件。不分大小写。
符号使用:
和:空格( )、+
不包含:-
或:|
转义:一对英文引号("");
匹配开头:^
匹配结尾:$
例如:
选中所有名称中包含有“eMule”或“0.49c”字眼,但不包含有“exe”字眼的:emule|0.49c -exe
选中所有名称的开头是“eMule”,结尾是“0.49c”的:^emule 0.49c$
选中所有名称中带有“eMule 0.49c”的(必须是“eMule 0.49c”,中间没有别的字符,不能是“eMule fake 0.49c”),需要转义:"emule 0.49c"
大小选择器帮您根据文件大小选择文件。