当前位置: 首页 >> 国产电影 >> 奇门密探[国语配音/中文字幕].Qi.Men.Mi.Tan.2021.2160p.WEB-DL.H265.DDP2.0 1.51GB >> 正文

奇门密探[国语配音/中文字幕].Qi.Men.Mi.Tan.2021.2160p.WEB-DL.H265.DDP2.0 1.51GB

2021年11月14日 22:30:54     电影发布:来源于网络     电影分类:国产电影     评论(0)    

奇门密探[国语配音/中文字幕].Qi.Men.Mi.Tan.2021.2160p.WEB DL.H265.DDP2.0 1.51GB 喜剧片 国产电影  第1张

◎译 名 奇门密探

◎年 代 2021

◎产 地 中国大陆

◎语 言 汉语普通话 / 粤语

◎上映日期 2021-11-13(中国大陆网络)

◎IMDb链接 https://www.imdb.com/title//

◎豆瓣链接 https://movie.douban.com/subject/35656223/

◎片 长 86分钟

◎导 演 王晶 Jing Wong (id:1274331)

张敏 Aman Chang (id:1320966)

◎编 剧 王晶 Jing Wong (id:1274331)

◎演 员 邱意浓 Sabrina Qiu (id:1335402)

甄琪 Zhenqi Qi (id:1378123)

胡然 Michelle Hu (id:1328398)

孟瑶 Yao Meng (id:1314726)

苑琼丹 King-Tan Yuen (id:1274445)

陈浩民 Ho-Man Chan (id:1274567)

罗家英 Kar-Ying Law (id:1108968)

何浩文 Dominic Ho (id:1346307)

林子善 Chi-Sing Lam (id:1314861)

李嘉 Oscar Li (id:1385191)

文凯玲 Connie Man (id:1348030)

桂晶晶 Jingjing Gui (id:1380081)

解斯童 Sitong Xie (id:1417782)

方敏婷 Natalie Fong (id:1424317)

汤加文 Carmen Tong (id:1358039)

王宝葆 Lukian Wang (id:1357585)

冼国华 (id:1463985)

◎标 签 王晶 / 整蛊专家 / 恶搞 / 录像鸡 / 张敏 / 延喜笑传 / 夺你命3000 / 2021

◎简 介

奇门派和五毒派为江湖两大门派。两大门派为了“皇家龙种花落谁家”而各施其法,误打误撞地揭发了企图让皇帝(陈浩民饰)得不到子嗣而待其驾崩后坐上皇位的皇叔的阴谋。皇叔派出潜伏在皇后(胡然)身边的五毒派弟子秀明(甄淇饰)试图毒害皇嗣,而秀明却阴险狡猾另有企图,对皇叔并不忠心,趁机为己谋私利。反而奇门派的多美(邱意浓饰),为人善良,大大咧咧,总是乐从天降,化险为夷,更对权势亳不留恋,倾心于英俊勇猛的萌笨直男侍卫太阳(何浩文饰),二人合力化解皇叔之乱,不恋名利,欢天喜地浪迹天涯。

  1. ##### MediaInfo ######

  2. General

  3. Unique ID : 32865790654493038733190176084252151369 (0x18B9B895DD371FC62A8580CCACB3CE49)

  4. Complete name : 奇门密探[email protected]v

  5. Format : Matroska

  6. Format version : Version 4

  7. File size : 1.51 GiB

  8. Duration : 1 h 26 min

  9. Overall bit rate : 2 505 kb/s

  10. Encoded date : UTC 2021-11-13 08:16:26

  11. Writing application : mkvmerge v56.1.0 ('My Friend') 64-bit

  12. Writing library : libebml v1.4.2 + libmatroska v1.6.4


  13. Video

  14. ID : 2

  15. Format : HEVC

  16. Format/Info : High Efficiency Video Coding

  17. Format profile : [email protected]@Main

  18. Codec ID : V_MPEGH/ISO/HEVC

  19. Duration : 1 h 26 min

  20. Bit rate : 2 407 kb/s

  21. Width : 3 840 pixels

  22. Height : 1 632 pixels

  23. Display aspect ratio : 2.35:1

  24. Frame rate mode : Constant

  25. Frame rate : 25.000 FPS

  26. Color space : YUV

  27. Chroma subsampling : 4:2:0

  28. Bit depth : 8 bits

  29. Bits/(Pixel*Frame) : 0.015

  30. Stream size : 1.45 GiB (96%)

  31. Default : Yes

  32. Forced : No


  33. Audio

  34. ID : 1

  35. Format : E-AC-3

  36. Format/Info : Enhanced AC-3

  37. Commercial name : Dolby Digital Plus

  38. Codec ID : A_EAC3

  39. Duration : 1 h 26 min

  40. Bit rate mode : Constant

  41. Bit rate : 96.0 kb/s

  42. Channel(s) : 2 channels

  43. Channel layout : L R

  44. Sampling rate : 48.0 kHz

  45. Frame rate : 31.250 FPS (1536 SPF)

  46. Compression mode : Lossy

  47. Stream size : 59.4 MiB (4%)

  48. Service kind : Complete Main

  49. Default : Yes

  50. Forced : No




复制代码



文件下载


除非特别注明,本文『奇门密探[国语配音/中文字幕].Qi.Men.Mi.Tan.2021.2160p.WEB-DL.H265.DDP2.0 1.51GB』来源于互联网机器人自动抓取,非本站原创。 浮游电影网不对本文拥有版权,如有侵犯,请联系邮箱:fuyouu#yandex.com[#换成@]投诉。我们会在15个工作日内删除。 但烦请转载时请标明出处:“本文转载于『浮游电影网』,原文地址:https://www.fuyouu.com/18115.html

评论吧骚年!

发表你的见解   

昵称*

E-mail*(建议输入,以便收到博主回复的提示邮件)

验证码*

您可以使用eMule或eMule Mod(Windows)、aMule(Win、Linux、Mac)等软件下载eD2k链接。。
eMule收藏集(.emulecollection)文件是您选中的所有链接的列表文件。eMule可以直接下载它们。
按住SHIFT键选择可以选中多个选择框。
可用文件名和大小选择器来选择文件。
文件名选择器帮您根据文件名称或后缀来选择文件。不分大小写。
符号使用:
和:空格( )、+
不包含:-
或:|
转义:一对英文引号("");
匹配开头:^
匹配结尾:$
例如:
选中所有名称中包含有“eMule”或“0.49c”字眼,但不包含有“exe”字眼的:emule|0.49c -exe
选中所有名称的开头是“eMule”,结尾是“0.49c”的:^emule 0.49c$
选中所有名称中带有“eMule 0.49c”的(必须是“eMule 0.49c”,中间没有别的字符,不能是“eMule fake 0.49c”),需要转义:"emule 0.49c"
大小选择器帮您根据文件大小选择文件。