当前位置: 首页 >> 日韩电影 >> 少林少女[国语音轨/中文字幕].Shaolin.Girl.2008.JPN.BluRay.1080p.x265.10bit.DDP5.1.L.MNHD-bt9527.cc 5.23GB >> 正文

少林少女[国语音轨/中文字幕].Shaolin.Girl.2008.JPN.BluRay.1080p.x265.10bit.DDP5.1.L.MNHD-bt9527.cc 5.23GB

2021年11月14日 22:27:21     电影发布:来源于网络     电影分类:日韩电影     评论(0)    

少林少女[国语音轨/中文字幕].Shaolin.Girl.2008.JPN.BluRay.1080p.x265.10bit.DDP5.1.L.MNHD bt9527.cc 5.23GB 运动 喜剧片 动作片 日韩电影  第1张

◎译 名 少林少女 / Shaolin Girl

◎年 代 2008

◎产 地 日本 / 中国香港

◎类 别 喜剧 / 动作 / 运动

◎语 言 日语 / 汉语普通话 / 粤语

◎上映日期 2008-04-26(日本)

◎IMDb链接 https://www.imdb.com/title/tt1133594/

◎豆瓣评分 3.8/10 (1844人评价)

◎豆瓣链接 https://movie.douban.com/subject/2417346/

◎片 长 107 分钟

◎导 演 本广克行 Katsuyuki Motohiro (id:1137425)

◎编 剧 十川诚志 Masashi Sogo (id:1314425)

十川梨香 Rika Sogo (id:1397230)

◎演 员 柴崎幸 Kou Shibasaki (id:1141865)

仲村亨 T?ru Nakamura (id:1050906)

江口洋介 Y?suke Eguchi (id:1088015)

张雨绮 Yuqi Zhang (id:1274494)

林子聪 Tze Chung Lam (id:1314402)

田启文 Kai Man Tin (id:1315882)

冈村隆史 Takashi Okamura (id:1315212)

室毅 Tsuyoshi Muro (id:1275807)

花形绫沙 Ayasa Hanagata (id:1316114)

磨赤儿 Akaji Maro (id:1321432)

内田慈 Chika Uchida (id:1340040)

石井正则 Masanori Ishii (id:1001643)

永野宗典 Munenori Nagano (id:1005712)

松本龟 Tortoise Matsumoto (id:1015505)

桂亚沙美 Asami Katsura (id:1019778)

乙黑绘理 Eri Otoguro (id:1028201)

泽井美优 Miyuu Sawai (id:1028888)

与座嘉秋 Yoshiaki Yoza (id:1030727)

川冈大次郎 Daijiro Kawaoka (id:1034658)

富野由悠季 Yoshiyuki Tomino (id:1042523)

真野裕子 Yuko Mano (id:1052975)

凯瑟琳·濑户 Catherine Seto (id:1195463)

渡边奈绪子 Naoko Watanabe (id:1230468)

志贺广太郎 Kotaro Shiga (id:1274743)

满岛光 Hikari Mitsushima (id:1037118)

臼井裕词 Hirotsugu Usui (id:1316233)

周星驰 Stephen Chow (id:1048026)

龟山千广 Chihiro Kameyama (id:1021239)

佐光朗 Akira Sako (id:1296480)

田口拓也 Takuya Taguchi (id:1298834)

波多野贵文 Takafumi Hatano (id:1346504)

◎标 签 日本 / 日本电影 / 动作 / 柴崎幸 / 少林少女 / 日语电影 / 我看过的电影 / 我看过的日语电影

◎简 介

天下武功出少林,盛名之下,奔赴少林习武的年轻人至今不绝。日本女孩樱泽凛(柴崎幸 饰)完成了3000天的少林修行,下山返日。而她回到家乡的第一件事就是四处央人学习少林拳,以完成自己光大少林拳的梦想,但无奈不被人理解,当年自己习武的武道场此时也已经荒废,樱泽凛在一家中餐馆中找到了昔日的师父岩井(江口洋介 饰),而后者已经放弃了武学之道。餐馆服务生敏敏(张雨绮 饰)对凛的身手颇为敬服,并介绍她加入了国际星馆大学的手网球队。凛武功虽高,但缺乏团队协作和控制力道的能力,赶来担任手网球队教练的岩井循循善诱令凛领悟少林拳的奥义。另一方面,星馆大学校长大尾(仲村亨 饰)在等待与凛较量的机会……

  1. ##### MediaInfo ######

  2. General

  3. Unique ID : 74389994479643633700067303326304632914 (0x37F6FDE6274FF7D8764D20B5F2A70052)

  4. Complete name : Sh[email protected]BBQDDQ.COM.mkv

  5. Format : Matroska

  6. Format version : Version 4

  7. File size : 5.23 GiB

  8. Duration : 1 h 47 min

  9. Overall bit rate : 6 959 kb/s

  10. Movie name : Shaolin Girl 2008 JPN BluRay 1080p - FRDS

  11. Encoded date : UTC 2021-11-12 12:05:06

  12. Writing application : mkvmerge v62.0.0 ('Apollo') 64-bit

  13. Writing library : libebml v1.4.2 + libmatroska v1.6.4


  14. Video

  15. ID : 1

  16. Format : HEVC

  17. Format/Info : High Efficiency Video Coding

  18. Format profile : Main [email protected]@High

  19. Codec ID : V_MPEGH/ISO/HEVC

  20. Duration : 1 h 47 min

  21. Bit rate : 5 624 kb/s

  22. Width : 1 920 pixels

  23. Height : 816 pixels

  24. Display aspect ratio : 2.35:1

  25. Frame rate mode : Constant

  26. Frame rate : 23.976 (24000/1001/53354) FPS

  27. Color space : YUV

  28. Chroma subsampling : 4:2:0

  29. Bit depth : 10 bits

  30. Bits/(Pixel*Frame) : 0.150

  31. Stream size : 4.23 GiB (81%)

  32. Writing library : x265 3.5+19-8003e4382:[Windows][MSVC 1929][64 bit] 10bit

  33. Encoding settings : cpuid=533541111039 / frame-threads=4 / numa-pools=16 / wpp / pmode / no-pme / no-psnr / no-ssim / log-level=2 / input-csp=1 / input-res=1920x816 / interlace=0 / total-frames=154803 / level-idc=0 / high-tier=1 / uhd-bd=0 / ref=6 / no-allow-non-conformance / no-repeat-headers / annexb / no-aud / no-eob / no-eos / no-hrd / info / hash=0 / no-temporal-layers / no-open-gop / min-keyint=1 / keyint=250 / gop-lookahead=0 / bframes=8 / b-adapt=2 / b-pyramid / bframe-bias=0 / rc-lookahead=100 / lookahead-slices=0 / NTMzNTQ=uuDQuD2mJt9fsCf / scenecut=40 / no-hist-scenecut / radl=0 / no-splice / no-intra-refresh / ctu=32 / min-cu-size=8 / no-rect / no-amp / max-tu-size=32 / tu-inter-depth=4 / tu-intra-depth=4 / limit-tu=0 / rdoq-level=2 / dynamic-rd=0.00 / no-ssim-rd / signhide / tskip / nr-intra=0 / nr-inter=0 / no-constrained-intra / strong-intra-smoothing / max-merge=5 / limit-refs=0 / no-limit-modes / me=3 / subme=7 / merange=57 / temporal-mvp / no-frame-dup / no-hme / weightp / weightb / no-analyze-src-pics / deblock=-3:-3 / no-sao / no-sao-non-deblock / rd=4 / selective-sao=0 / no-early-skip / no-rskip / no-fast-intra / no-tskip-fast / no-cu-lossless / b-intra / no-splitrd-skip / rdpenalty=0 / psy-rd=1.50 / psy-rdoq=1.00 / no-rd-refine / no-lossless / cbqpoffs=-2 / crqpoffs=-2 / rc=crf / crf=22.0 / qcomp=0.65 / qpstep=4 / stats-write=0 / stats-read=0 / vbv-maxrate=160000 / vbv-bufsize=160000 / vbv-init=0.9 / min-vbv-fullness=50.0 / max-vbv-fullness=80.0 / crf-max=0.0 / crf-min=0.0 / ipratio=1.30 / pbratio=1.20 / aq-mode=1 / aq-strength=1.00 / no-cutree / zone-count=0 / no-strict-cbr / qg-size=8 / no-rc-grain / qpmax=69 / qpmin=0 / no-const-vbv / sar=0 / overscan=0 / videoformat=5 / range=0 / colorprim=1 / transfer=1 / colormatrix=1 / chromaloc=0 / display-window=0 / cll=0,0 / min-luma=0 / max-luma=1023 / log2-max-poc-lsb=8 / vui-timing-info / vui-hrd-info / slices=1 / no-opt-qp-pps / no-opt-ref-list-length-pps / no-multi-pass-opt-rps / scenecut-bias=0.05 / hist-threshold=0.03 / no-opt-cu-delta-qp / no-aq-motion / no-hdr10 / no-hdr10-opt / no-dhdr10-opt / no-idr-recovery-sei / analysis-reuse-level=0 / analysis-save-reuse-level=0 / analysis-load-reuse-level=0 / scale-factor=0 / refine-intra=0 / refine-inter=0 / refine-mv=1 / refine-ctu-distortion=0 / no-limit-sao / ctu-info=0 / no-lowpass-dct / refine-analysis-type=0 / copy-pic=1 / max-ausize-factor=1.0 / no-dynamic-refine / no-single-sei / no-hevc-aq / no-svt / no-field / qp-adaptation-range=1.00 / scenecut-aware-qp=0conformance-window-offsets / right=0 / bottom=0 / NTMzNTQ= / decoder-max-rate=0 / no-vbv-live-multi-pass

  34. Default : Yes

  35. Forced : No

  36. Color range : Limited

  37. Color primaries : BT.709

  38. Transfer characteristics : BT.709

  39. Matrix coefficients : BT.709


  40. Audio #1

  41. ID : 2

  42. Format : E-AC-3

  43. Format/Info : Enhanced AC-3

  44. Commercial name : Dolby Digital Plus

  45. Codec ID : A_EAC3

  46. Duration : 1 h 47 min

  47. Bit rate mode : Constant

  48. Bit rate : 768 kb/s

  49. Channel(s) : 6 channels

  50. Channel layout : L R C LFE Ls Rs

  51. Sampling rate : 48.0 kHz

  52. Frame rate : 62.500 FPS (768 SPF)

  53. Compression mode : Lossy

  54. Stream size : 591 MiB (11%)

  55. Language : Japanese

  56. Service kind : Complete Main

  57. Default : Yes

  58. Forced : No


  59. Audio #2

  60. ID : 3

  61. ID in the original source medium : 4354 (0x1102)

  62. Format : AC-3

  63. Format/Info : Audio Coding 3

  64. Commercial name : Dolby Digital

  65. Codec ID : A_AC3

  66. Duration : 1 h 47 min

  67. Bit rate mode : Constant

  68. Bit rate : 448 kb/s

  69. Channel(s) : 2 channels

  70. Channel layout : L R

  71. Sampling rate : 48.0 kHz

  72. Frame rate : 31.250 FPS (1536 SPF)

  73. Compression mode : Lossy

  74. Stream size : 345 MiB (6%)

  75. Language : Chinese

  76. Service kind : Complete Main

  77. Default : Yes

  78. Forced : No

  79. Original source medium : Blu-ray


  80. Text #1

  81. ID : 4

  82. ID in the original source medium : 4609 (0x1201)

  83. Format : PGS

  84. Muxing mode : zlib

  85. Codec ID : S_HDMV/PGS

  86. Codec ID/Info : Picture based subtitle format used on BDs/HD-DVDs

  87. Duration : 1 h 46 min

  88. Bit rate : 25.9 kb/s

  89. Count of elements : 2054

  90. Stream size : 19.8 MiB (0%)

  91. Title : CHS

  92. Language : Chinese

  93. Default : Yes

  94. Forced : No

  95. Original source medium : Blu-ray


  96. Text #2

  97. ID : 5

  98. ID in the original source medium : 4608 (0x1200)

  99. Format : PGS

  100. Muxing mode : zlib

  101. Codec ID : S_HDMV/PGS

  102. Codec ID/Info : Picture based subtitle format used on BDs/HD-DVDs

  103. Duration : 1 h 46 min

  104. Bit rate : 26.8 kb/s

  105. Count of elements : 2054

  106. Stream size : 20.5 MiB (0%)

  107. Title : CHT

  108. Language : Chinese

  109. Default : Yes

  110. Forced : No

  111. Original source medium : Blu-ray


  112. Text #3

  113. ID : 6

  114. ID in the original source medium : 4612 (0x1204)

  115. Format : PGS

  116. Muxing mode : zlib

  117. Codec ID : S_HDMV/PGS

  118. Codec ID/Info : Picture based subtitle format used on BDs/HD-DVDs

  119. Duration : 1 h 46 min

  120. Bit rate : 16.1 kb/s

  121. Count of elements : 2054

  122. Stream size : 12.3 MiB (0%)

  123. Title : CHS

  124. Language : Chinese

  125. Default : Yes

  126. Forced : No

  127. Original source medium : Blu-ray


  128. Text #4

  129. ID : 7

  130. ID in the original source medium : 4611 (0x1203)

  131. Format : PGS

  132. Muxing mode : zlib

  133. Codec ID : S_HDMV/PGS

  134. Codec ID/Info : Picture based subtitle format used on BDs/HD-DVDs

  135. Duration : 1 h 46 min

  136. Bit rate : 15.6 kb/s

  137. Count of elements : 2054

  138. Stream size : 11.9 MiB (0%)

  139. Title : CHT

  140. Language : Chinese

  141. Default : Yes

  142. Forced : No

  143. Original source medium : Blu-ray


  144. Text #5

  145. ID : 8

  146. ID in the original source medium : 4608 (0x1200)

  147. Format : PGS

  148. Muxing mode : zlib

  149. Codec ID : S_HDMV/PGS

  150. Codec ID/Info : Picture based subtitle format used on BDs/HD-DVDs

  151. Duration : 1 h 18 min

  152. Bit rate : 4 437 b/s

  153. Count of elements : 133

  154. Stream size : 2.50 MiB (0%)

  155. Language : Japanese

  156. Default : No

  157. Forced : No

  158. Original source medium : Blu-ray


  159. Text #6

  160. ID : 9

  161. ID in the original source medium : 4609 (0x1201)

  162. Format : PGS

  163. Muxing mode : zlib

  164. Codec ID : S_HDMV/PGS

  165. Codec ID/Info : Picture based subtitle format used on BDs/HD-DVDs

  166. Duration : 1 h 47 min

  167. Bit rate : 59.1 kb/s

  168. Count of elements : 4132

  169. Stream size : 45.4 MiB (1%)

  170. Language : Japanese

  171. Default : No

  172. Forced : No

  173. Original source medium : Blu-ray


  174. Text #7

  175. ID : 10

  176. ID in the original source medium : 4610 (0x1202)

  177. Format : PGS

  178. Muxing mode : zlib

  179. Codec ID : S_HDMV/PGS

  180. Codec ID/Info : Picture based subtitle format used on BDs/HD-DVDs

  181. Duration : 1 h 47 min

  182. Bit rate : 44.2 kb/s

  183. Count of elements : 2255

  184. Stream size : 33.9 MiB (1%)

  185. Language : English

  186. Default : No

  187. Forced : No

  188. Original source medium : Blu-ray


  189. Text #8

  190. ID : 11

  191. ID in the original source medium : 4610 (0x1202)

  192. Format : PGS

  193. Muxing mode : zlib

  194. Codec ID : S_HDMV/PGS

  195. Codec ID/Info : Picture based subtitle format used on BDs/HD-DVDs

  196. Duration : 1 h 47 min

  197. Bit rate : 44.2 kb/s

  198. Count of elements : 2255

  199. Stream size : 33.9 MiB (1%)

  200. Language : English

  201. Default : No

  202. Forced : No

  203. Original source medium : Blu-ray


  204. Menu

  205. 00:00:00.000 : en:Chapter 01

  206. 00:04:20.593 : en:Chapter 02

  207. 00:08:34.263 : en:Chapter 03

  208. 00:11:38.155 : en:Chapter 04

  209. 00:15:03.569 : en:Chapter 05

  210. 00:18:41.703 : en:Chapter 06

  211. 00:20:07.623 : en:Chapter 07

  212. 00:24:21.084 : en:Chapter 08

  213. 00:27:48.083 : en:Chapter 09

  214. 00:31:30.096 : en:Chapter 10

  215. 00:35:50.439 : en:Chapter 11

  216. 00:38:55.041 : en:Chapter 12

  217. 00:43:11.422 : en:Chapter 13

  218. 00:48:08.051 : en:Chapter 14

  219. 00:50:18.557 : en:Chapter 15

  220. 00:57:08.508 : en:Chapter 16

  221. 01:00:22.076 : en:Chapter 17

  222. 01:02:36.252 : en:Chapter 18

  223. 01:07:23.205 : en:Chapter 19

  224. 01:11:43.007 : en:Chapter 20

  225. 01:15:19.473 : en:Chapter 21

  226. 01:17:06.038 : en:Chapter 22

  227. 01:19:28.680 : en:Chapter 23

  228. 01:23:00.433 : en:Chapter 24

  229. 01:25:34.796 : en:Chapter 25

  230. 01:29:42.335 : en:Chapter 26

  231. 01:35:15.167 : en:Chapter 27

  232. 01:40:15.092 : en:Chapter 28




复制代码



文件下载


除非特别注明,本文『少林少女[国语音轨/中文字幕].Shaolin.Girl.2008.JPN.BluRay.1080p.x265.10bit.DDP5.1.L.MNHD-bt9527.cc 5.23GB』来源于互联网机器人自动抓取,非本站原创。 浮游电影网不对本文拥有版权,如有侵犯,请联系邮箱:fuyouu#yandex.com[#换成@]投诉。我们会在15个工作日内删除。 但烦请转载时请标明出处:“本文转载于『浮游电影网』,原文地址:https://www.fuyouu.com/18112.html

评论吧骚年!

发表你的见解   

昵称*

E-mail*(建议输入,以便收到博主回复的提示邮件)

验证码*

您可以使用eMule或eMule Mod(Windows)、aMule(Win、Linux、Mac)等软件下载eD2k链接。。
eMule收藏集(.emulecollection)文件是您选中的所有链接的列表文件。eMule可以直接下载它们。
按住SHIFT键选择可以选中多个选择框。
可用文件名和大小选择器来选择文件。
文件名选择器帮您根据文件名称或后缀来选择文件。不分大小写。
符号使用:
和:空格( )、+
不包含:-
或:|
转义:一对英文引号("");
匹配开头:^
匹配结尾:$
例如:
选中所有名称中包含有“eMule”或“0.49c”字眼,但不包含有“exe”字眼的:emule|0.49c -exe
选中所有名称的开头是“eMule”,结尾是“0.49c”的:^emule 0.49c$
选中所有名称中带有“eMule 0.49c”的(必须是“eMule 0.49c”,中间没有别的字符,不能是“eMule fake 0.49c”),需要转义:"emule 0.49c"
大小选择器帮您根据文件大小选择文件。