当前位置: 首页 >> 海外电影 >> 富二代[中文字幕].Son.of.a.Rich.2019.1080p.WEB-DL.H264.AAC-bt9527.cc 2.89GB >> 正文

富二代[中文字幕].Son.of.a.Rich.2019.1080p.WEB-DL.H264.AAC-bt9527.cc 2.89GB

2021年11月14日 22:25:31     电影发布:来源于网络     电影分类:海外电影     评论(0)    

富二代[中文字幕].Son.of.a.Rich.2019.1080p.WEB DL.H264.AAC bt9527.cc 2.89GB 喜剧片 海外电影  第1张

◎译 名 富二代 / 奴隶 / Kholop / Son of Rich

◎片 名 Холоп

◎年 代 2019

◎产 地 俄罗斯

◎类 别 喜剧

◎语 言 俄语

◎上映日期 2019-12-26(俄罗斯)

◎IMDb链接 https://www.imdb.com/title/tt11418452/

◎豆瓣评分 7.5/10 (3609人评价)

◎豆瓣链接 https://movie.douban.com/subject/34938649/

◎片 长 109分钟

◎导 演 克里姆·斯彭科 Klim Shipenko (id:1382988)

◎演 员 米洛斯·比柯维奇 Milos Bikovic (id:1332438)

玛丽亚·米罗诺娃 Mariya Mironova (id:1124564)

伊万·阿赫洛贝斯金 Ivan Okhlobystin (id:1009973)

亚历山大·斯莫勒克 Aleksandr Samoylenko (id:1358195)

亚历山德拉·伯蒂奇 Alexandra Bortich (id:1363291)

奥尔加·迪布采娃 Olga Dibtseva (id:1460601)

◎标 签 喜剧 / 俄罗斯 / 黑色幽默 / 搞笑 / 俄罗斯电影 / 人性 / 家庭 / 电影

◎简 介

格里戈里是个富二代,养尊处优、日子过得无法无天。一次,格里戈里玩得实在太过火,他老爸终于忍无可忍,决定采取非常手段教育败家子。他和老友、一位精神病学家一起“设局”——二人将一座废弃的村庄重建成了19世纪的风格,并策划了一场对格里戈里的“车祸”。于是,当格里戈里从车祸中醒来时,发现自己“穿越”回到19世纪!并成为了一个有钱人家的“奴隶”。

  1. ##### MediaInfo ######

  2. General

  3. Unique ID : 134134761083820014690404090242019807476 (0x64E96A50CD90421241B3B2D5A912D0F4)

  4. Complete name : [email protected]

  5. Format : Matroska

  6. Format version : Version 4

  7. File size : 2.88 GiB

  8. Duration : 1 h 48 min

  9. Overall bit rate : 3 803 kb/s

  10. Encoded date : UTC 2021-11-12 13:07:02

  11. Writing application : mkvmerge v56.1.0 ('My Friend') 64-bit

  12. Writing library : libebml v1.4.2 + libmatroska v1.6.4


  13. Video

  14. ID : 1

  15. Format : AVC

  16. Format/Info : Advanced Video Codec

  17. Format profile : [email protected]

  18. Format settings : CABAC / 1 Ref Frames

  19. Format settings, CABAC : Yes

  20. Format settings, Reference frames : 1 frame

  21. Format settings, GOP : M=1, N=60

  22. Codec ID : V_MPEG4/ISO/AVC

  23. Duration : 1 h 48 min

  24. Bit rate mode : Constant

  25. Bit rate : 3 675 kb/s

  26. Nominal bit rate : 4 000 kb/s

  27. Width : 1 920 pixels

  28. Height : 1 080 pixels

  29. Display aspect ratio : 16:9

  30. Frame rate mode : Constant

  31. Frame rate : 29.970 (30000/1001/53354) FPS

  32. Color space : YUV

  33. Chroma subsampling : 4:2:0

  34. Bit depth : 8 bits

  35. Scan type : Progressive

  36. Bits/(Pixel*Frame) : 0.059

  37. Stream size : 2.79 GiB (97%)

  38. Language : English

  39. Default : Yes

  40. Forced : No


  41. Audio

  42. ID : 2

  43. Format : AAC LC

  44. Format/Info : Advanced Audio Codec Low Complexity

  45. Codec ID : A_AAC-2

  46. Duration : 1 h 48 min

  47. Bit rate : 125 kb/s

  48. Channel(s) : 2 channels

  49. Channel layout : L R

  50. Sampling rate : 48.0 kHz

  51. Frame rate : 46.875 FPS (1024 SPF)

  52. Compression mode : Lossy

  53. Stream size : 97.4 MiB (3%)

  54. Language : Russian

  55. Default : Yes

  56. Forced : No


  57. Text #1

  58. ID : 3

  59. Format : UTF-8

  60. Codec ID : S_TEXT/UTF8

  61. Codec ID/Info : UTF-8 Plain Text

  62. Duration : 1 h 42 min

  63. Bit rate : 48 b/s

  64. Count of elements : 1373

  65. Stream size : 36.7 KiB (0%)

  66. Title : Chinese Simplified

  67. Language : Chinese

  68. Default : Yes

  69. Forced : No


  70. Text #2

  71. ID : 4

  72. Format : UTF-8

  73. Codec ID : S_TEXT/UTF8

  74. Codec ID/Info : UTF-8 Plain Text

  75. Duration : 1 h 42 min

  76. Bit rate : 48 b/s

  77. Count of elements : 1373

  78. Stream size : 36.7 KiB (0%)

  79. Title : Chinese Traditional

  80. Language : Chinese

  81. Default : No

  82. Forced : No




复制代码



文件下载


除非特别注明,本文『富二代[中文字幕].Son.of.a.Rich.2019.1080p.WEB-DL.H264.AAC-bt9527.cc 2.89GB』来源于互联网机器人自动抓取,非本站原创。 浮游电影网不对本文拥有版权,如有侵犯,请联系邮箱:fuyouu#yandex.com[#换成@]投诉。我们会在15个工作日内删除。 但烦请转载时请标明出处:“本文转载于『浮游电影网』,原文地址:https://www.fuyouu.com/18111.html

评论吧骚年!

发表你的见解   

昵称*

E-mail*(建议输入,以便收到博主回复的提示邮件)

验证码*

您可以使用eMule或eMule Mod(Windows)、aMule(Win、Linux、Mac)等软件下载eD2k链接。。
eMule收藏集(.emulecollection)文件是您选中的所有链接的列表文件。eMule可以直接下载它们。
按住SHIFT键选择可以选中多个选择框。
可用文件名和大小选择器来选择文件。
文件名选择器帮您根据文件名称或后缀来选择文件。不分大小写。
符号使用:
和:空格( )、+
不包含:-
或:|
转义:一对英文引号("");
匹配开头:^
匹配结尾:$
例如:
选中所有名称中包含有“eMule”或“0.49c”字眼,但不包含有“exe”字眼的:emule|0.49c -exe
选中所有名称的开头是“eMule”,结尾是“0.49c”的:^emule 0.49c$
选中所有名称中带有“eMule 0.49c”的(必须是“eMule 0.49c”,中间没有别的字符,不能是“eMule fake 0.49c”),需要转义:"emule 0.49c"
大小选择器帮您根据文件大小选择文件。