当前位置: 首页 >> 日韩电影 >> 汤屋街物语[中文字幕].Mio.on.the.Shore.2019.1080p.WEB-DL.H264.AAC-bt9527.cc 2.63GB >> 正文

汤屋街物语[中文字幕].Mio.on.the.Shore.2019.1080p.WEB-DL.H264.AAC-bt9527.cc 2.63GB

2021年11月14日 22:23:34     电影发布:来源于网络     电影分类:日韩电影     评论(0)    

汤屋街物语[中文字幕].Mio.on.the.Shore.2019.1080p.WEB DL.H264.AAC bt9527.cc 2.63GB 剧情片 日韩电影  第1张

◎译 名 汤屋街物语 / 汤屋里我记得(台) / Mio on the Shore / 我很轻松

◎片 名 わたしは光をにぎっている

◎年 代 2019

◎产 地 日本

◎类 别 剧情

◎语 言 日语

◎上映日期 2019-07-05(台北电影节) / 2019-11-15(日本)

◎IMDb链接 https://www.imdb.com/title/tt10584784/

◎豆瓣评分 6.6/10 (468人评价)

◎豆瓣链接 https://movie.douban.com/subject/33395863/

◎片 长 96分钟

◎导 演 中川龙太郎 Ry?tar? Nakagawa (id:1399438)

◎编 剧 中川龙太郎 Ry?tar? Nakagawa (id:1399438)

◎演 员 松本穗香 Honoka Matsumoto (id:1350187)

渡边大知 Daichi Watanabe (id:1330369)

德永绘里 Eri Tokunaga (id:1046778)

吉村界人 Kaito Yoshimura (id:1371997)

光石研 Ken Mitsuishi (id:1029037)

樫山文枝 Fumie Kashiyama (id:1024805)

◎标 签 日本 / 日本电影 / 剧情 / 2019 / 松本穗香 / 中川龙太郎 / 日影 / 德永绘里

◎简 介

以乡村少女进城打工,却在复杂难解的都市人际关系中载浮载沉的生命故事为题,描写孤身一人投靠亡父挚友的女主角,在城市老街一角的汤屋里看遍悲欢离合的惆怅物语,宛若现代写实版的《魔女宅急便》,女主角松本穗香曾演出《谢谢你,在世界的角落找到我》电视剧版女主角,被视为日本影坛潜力新秀。

  1. ##### MediaInfo ######

  2. General

  3. Unique ID : 309551512654593415311208574301064639683 (0xE8E173E7C386E1123DD1BC9DA517B4C3)

  4. Complete name : [email protected]

  5. Format : Matroska

  6. Format version : Version 4

  7. File size : 2.63 GiB

  8. Duration : 1 h 36 min

  9. Overall bit rate : 3 910 kb/s

  10. Encoded date : UTC 2021-11-12 13:56:39

  11. Writing application : mkvmerge v56.1.0 ('My Friend') 64-bit

  12. Writing library : libebml v1.4.2 + libmatroska v1.6.4


  13. Video

  14. ID : 1

  15. Format : AVC

  16. Format/Info : Advanced Video Codec

  17. Format profile : [email protected]

  18. Format settings : CABAC / 1 Ref Frames

  19. Format settings, CABAC : Yes

  20. Format settings, Reference frames : 1 frame

  21. Format settings, GOP : M=1, N=60

  22. Codec ID : V_MPEG4/ISO/AVC

  23. Duration : 1 h 36 min

  24. Bit rate mode : Constant

  25. Bit rate : 3 782 kb/s

  26. Nominal bit rate : 4 000 kb/s

  27. Width : 1 920 pixels

  28. Height : 1 080 pixels

  29. Display aspect ratio : 16:9

  30. Frame rate mode : Constant

  31. Frame rate : 29.970 (30000/1001/53354) FPS

  32. Color space : YUV

  33. Chroma subsampling : 4:2:0

  34. Bit depth : 8 bits

  35. Scan type : Progressive

  36. Bits/(Pixel*Frame) : 0.061

  37. Stream size : 2.54 GiB (97%)

  38. Language : English

  39. Default : Yes

  40. Forced : No


  41. Audio

  42. ID : 2

  43. Format : AAC LC

  44. Format/Info : Advanced Audio Codec Low Complexity

  45. Codec ID : A_AAC-2

  46. Duration : 1 h 36 min

  47. Bit rate : 125 kb/s

  48. Channel(s) : 2 channels

  49. Channel layout : L R

  50. Sampling rate : 48.0 kHz

  51. Frame rate : 46.875 FPS (1024 SPF)

  52. Compression mode : Lossy

  53. Stream size : 86.3 MiB (3%)

  54. Language : Japanese

  55. Default : Yes

  56. Forced : No


  57. Text #1

  58. ID : 3

  59. Format : UTF-8

  60. Codec ID : S_TEXT/UTF8

  61. Codec ID/Info : UTF-8 Plain Text

  62. Duration : 1 h 34 min

  63. Bit rate : 26 b/s

  64. Count of elements : 713

  65. Stream size : 18.3 KiB (0%)

  66. Title : Chinese Simplified

  67. Language : Chinese

  68. Default : Yes

  69. Forced : No


  70. Text #2

  71. ID : 4

  72. Format : UTF-8

  73. Codec ID : S_TEXT/UTF8

  74. Codec ID/Info : UTF-8 Plain Text

  75. Duration : 1 h 34 min

  76. Bit rate : 26 b/s

  77. Count of elements : 713

  78. Stream size : 18.3 KiB (0%)

  79. Title : Chinese Traditional

  80. Language : Chinese

  81. Default : No

  82. Forced : No




复制代码



文件下载


除非特别注明,本文『汤屋街物语[中文字幕].Mio.on.the.Shore.2019.1080p.WEB-DL.H264.AAC-bt9527.cc 2.63GB』来源于互联网机器人自动抓取,非本站原创。 浮游电影网不对本文拥有版权,如有侵犯,请联系邮箱:fuyouu#yandex.com[#换成@]投诉。我们会在15个工作日内删除。 但烦请转载时请标明出处:“本文转载于『浮游电影网』,原文地址:https://www.fuyouu.com/18110.html

评论吧骚年!

发表你的见解   

昵称*

E-mail*(建议输入,以便收到博主回复的提示邮件)

验证码*

您可以使用eMule或eMule Mod(Windows)、aMule(Win、Linux、Mac)等软件下载eD2k链接。。
eMule收藏集(.emulecollection)文件是您选中的所有链接的列表文件。eMule可以直接下载它们。
按住SHIFT键选择可以选中多个选择框。
可用文件名和大小选择器来选择文件。
文件名选择器帮您根据文件名称或后缀来选择文件。不分大小写。
符号使用:
和:空格( )、+
不包含:-
或:|
转义:一对英文引号("");
匹配开头:^
匹配结尾:$
例如:
选中所有名称中包含有“eMule”或“0.49c”字眼,但不包含有“exe”字眼的:emule|0.49c -exe
选中所有名称的开头是“eMule”,结尾是“0.49c”的:^emule 0.49c$
选中所有名称中带有“eMule 0.49c”的(必须是“eMule 0.49c”,中间没有别的字符,不能是“eMule fake 0.49c”),需要转义:"emule 0.49c"
大小选择器帮您根据文件大小选择文件。