当前位置: 首页 >> 欧美电影 >> 文科恋曲[中文字幕].Liberal.Arts.2012.1080p.BluRay.x265.10bit.DTS-bt9527.cc 7.39GB >> 正文

文科恋曲[中文字幕].Liberal.Arts.2012.1080p.BluRay.x265.10bit.DTS-bt9527.cc 7.39GB

2021年11月14日 22:19:30     电影发布:来源于网络     电影分类:欧美电影     评论(0)    

文科恋曲[中文字幕].Liberal.Arts.2012.1080p.BluRay.x265.10bit.DTS bt9527.cc 7.39GB 音乐片 爱情片 喜剧片 剧情片 欧美电影  第1张

◎译 名 文科恋曲 / 校缘心曲(港) / 爱情必修学(台)

◎片 名 Liberal Arts

◎年 代 2012

◎产 地 美国

◎类 别 剧情 / 喜剧 / 爱情 / 音乐

◎语 言 英语

◎上映日期 2012-09-14(美国)

◎IMDb链接 https://www.imdb.com/title/tt1872818/

◎豆瓣评分 7.4/10 (20208人评价)

◎豆瓣链接 https://movie.douban.com/subject/6757776/

◎片 长 98分钟

◎导 演 乔什·拉德诺 Josh Radnor (id:1027076)

◎编 剧 乔什·拉德诺 Josh Radnor (id:1027076)

◎演 员 乔什·拉德诺 Josh Radnor (id:1027076)

伊丽莎白·奥尔森 Elizabeth Olsen (id:1129847)

理查德·詹金斯 Richard Jenkins (id:1048145)

艾莉森·珍妮 Allison Janney (id:1041139)

伊莉莎白·里瑟 Elizabeth Reaser (id:1009236)

约翰·马加罗 John Magaro (id:1317515)

凯特·伯顿 Kate Burton (id:1049825)

Robert Desiderio Robert Desiderio (id:1050106)

扎克·埃夫隆 Zac Efron (id:1016676)

克丽丝滕·布什 Kristen Bush (id:1310875)

阿丽·安 Ali Ahn (id:1373464)

格雷格·埃德尔曼 Gregg Edelman (id:1089306)

理查德·杜恩 Richard Doone (id:1187349)

迈克尔·温斯顿 Michael Weston (id:1040607)

安吉利·赞巴拉娜 Angelic Zambrana (id:1310646)

◎标 签 文艺 / 美国 / 爱情 / 2012 / 美国电影 / 剧情 / 乔什·拉德诺 / 独立电影

◎简 介

已过而立之年的杰西(乔什·拉德诺 Josh Radnor 饰)厌倦了乏味单调的工作,他总是怀念着以往的大学生活,曾经的食堂和寝室、聚会和诗会常常浮现在他脑海。这天,他突然接到大学时代最喜欢的彼得教授(理查·詹金斯 Richard Jenkins 饰)的邀请,希望他能在自己的退休晚宴上做个演讲,杰西简直迫不及待地前去赴约。令人意想不到的是,在晚宴上他遇到了一位19岁的女学生吉比(伊丽莎白·奥尔森 Elizabeth Olsen 饰),吉比非常喜欢他的演讲,在交谈中,两人竟发现对方在文学、艺术上的爱好几乎一模一样,彼此渐渐互生情愫。然而,现实的年龄差距却似乎总是阻隔在两人之间的藩篱……

◎获奖情况 (共1项)

第3届豆瓣电影鑫像奖 (2013)

鑫豆单元 最容易忽视的好电影(提名)

  1. ##### MediaInfo ######

  2. General

  3. Unique ID : 192707329047116811172041686276338287854 (0x90FA14E08EABF2626D703D85153704EE)

  4. Complete name : [email protected]kv

  5. Format : Matroska

  6. Format version : Version 4

  7. File size : 7.39 GiB

  8. Duration : 1 h 37 min

  9. Overall bit rate : 10.9 Mb/s

  10. Movie name : Liberal Arts

  11. Encoded date : UTC 2021-11-14 00:23:37

  12. Writing application : mkvmerge v53.0.0 ('Fool's Gold') 64-bit

  13. Writing library : libebml v1.4.1 + libmatroska v1.6.2


  14. Video

  15. ID : 1

  16. Format : HEVC

  17. Format/Info : High Efficiency Video Coding

  18. Format profile : Main [email protected]@Main

  19. Codec ID : V_MPEGH/ISO/HEVC

  20. Duration : 1 h 37 min

  21. Bit rate : 9 270 kb/s

  22. Width : 1 920 pixels

  23. Height : 816 pixels

  24. Display aspect ratio : 2.35:1

  25. Frame rate mode : Constant

  26. Frame rate : 23.976 (24000/1001/53354) FPS

  27. Color space : YUV

  28. Chroma subsampling : 4:2:0

  29. Bit depth : 10 bits

  30. Bits/(Pixel*Frame) : 0.247

  31. Stream size : 6.30 GiB (85%)

  32. Writing library : x265 3.5+2-g2b25c9ba0+45:[Windows][GCC 10.2.0][64 bit] Yuuki 10bit+8bit+12bit

  33. Encoding settings : rc=crf / crf=15.0000 / qcomp=0.60 / qpstep=4 / stats-write=0 / stats-read=0 / no-lossless / no-cu-lossless / aq-mode=3 / aq-strength=0.80 / cbqpoffs=0 / crqpoffs=0 / ipratio=1.40 / pbratio=1.30 / psy-rd=2.00 / psy-rdoq=0.00 / deblock=0:0 / ref=6 / limit-refs=1 / no-limit-modes / bframes=8 / b-adapt=2 / bframe-bias=0 / b-pyramid / b-intra / weightp / weightb / min-keyint=24 / max-keyint=240 / rc-lookahead=24 / gop-lookahead=0 / NTMzNTQ=uuDQuD2mJt9fsCf / scenecut=40 / hist-scenecut=0 / radl=0 / max-cu-size=64 / min-cu-size=8 / me=3 / subme=7 / merange=48 / rdoq-level=0 / rd=4 / rdpenalty=0 / dynamic-rd=0.00 / no-rd-refine / ----- / cutree / sao / no-rect / no-amp / no-open-gop / wpp / no-pmode / no-pme / no-psnr / no-ssim / nr-intra=0 / nr-inter=0 / no-constrained-intra / no-strong-intra-smoothing / max-tu-size=32 / tu-inter-depth=1 / tu-intra-depth=1 / limit-tu=0 / qg-size=32 / qpmax=69 / qpmin=0 / ----- / cpuid=533541111039 / frame-threads=5 / numa-pools=+ / log-level=2 / input-csp=1 / input-res=1920x816 / interlace=0 / level-idc=0 / high-tier=1 / uhd-bd=0 / no-allow-non-conformance / no-repeat-headers / aud / no-hrd / info / hash=0 / no-temporal-layers / lookahead-slices=0 / no-splice / no-intra-refresh / no-ssim-rd / signhide / no-tskip / max-merge=3 / temporal-mvp / no-frame-dup / no-hme / no-analyze-src-pics / no-sao-non-deblock / selective-sao=4 / early-skip / rskip / no-fast-intra / no-tskip-fast / no-splitrd-skip / zone-count=0 / no-strict-cbr / no-rc-grain / no-const-vbv / sar=0 / overscan=0 / videoformat=5 / range=0 / colorprim=2 / transfer=2 / colormatrix=2 / chromaloc=0 / display-window=0 / cll=0,0 / min-luma=0 / max-luma=1023 / log2-max-poc-lsb=8 / vui-timing-info / vui-hrd-info / slices=1 / no-opt-qp-pps / no-opt-ref-list-length-pps / no-multi-pass-opt-rps / scenecut-bias=0.05 / hist-threshold=0.03 / no-opt-cu-delta-qp / no-aq-motion / no-hdr10 / no-hdr10-opt / no-dhdr10-opt / no-idr-recovery-sei / analysis-reuse-level=0 / analysis-save-reuse-level=0 / analysis-load-reuse-level=0 / scale-factor=0 / refine-intra=0 / refine-inter=0 / refine-mv=1 / refine-ctu-distortion=0 / no-limit-sao / ctu-info=0 / no-lowpass-dct / refine-analysis-type=0 / copy-pic=1 / max-ausize-factor=1.0 / no-dynamic-refine / no-single-sei / no-hevc-aq / no-svt / no-field / qp-adaptation-range=1.00 / scenecut-aware-qp=0conformance-window-offsets / right=0 / bottom=0 / NTMzNTQ= / decoder-max-rate=0 / no-vbv-live-multi-pass

  34. Language : English

  35. Default : Yes

  36. Forced : No


  37. Audio

  38. ID : 2

  39. ID in the original source medium : 4352 (0x1100)

  40. Format : DTS

  41. Format/Info : Digital Theater Systems

  42. Codec ID : A_DTS

  43. Duration : 1 h 37 min

  44. Bit rate mode : Constant

  45. Bit rate : 1 509 kb/s

  46. Channel(s) : 6 channels

  47. Channel layout : C L R Ls Rs LFE

  48. Sampling rate : 48.0 kHz

  49. Frame rate : 93.750 FPS (512 SPF)

  50. Bit depth : 16 bits

  51. Compression mode : Lossy

  52. Stream size : 1.03 GiB (14%)

  53. Title : 环绕声 5.1

  54. Language : English

  55. Default : Yes

  56. Forced : No

  57. Original source medium : Blu-ray


  58. Text #1

  59. ID : 3

  60. ID in the original source medium : 4610 (0x1202)

  61. Format : PGS

  62. Muxing mode : zlib

  63. Codec ID : S_HDMV/PGS

  64. Codec ID/Info : Picture based subtitle format used on BDs/HD-DVDs

  65. Duration : 1 h 36 min

  66. Bit rate : 53.1 kb/s

  67. Count of elements : 2482

  68. Stream size : 36.8 MiB (0%)

  69. Language : Chinese

  70. Default : No

  71. Forced : No

  72. Original source medium : Blu-ray


  73. Text #2

  74. ID : 4

  75. ID in the original source medium : 4611 (0x1203)

  76. Format : PGS

  77. Muxing mode : zlib

  78. Codec ID : S_HDMV/PGS

  79. Codec ID/Info : Picture based subtitle format used on BDs/HD-DVDs

  80. Duration : 1 h 36 min

  81. Bit rate : 53.4 kb/s

  82. Count of elements : 2482

  83. Stream size : 36.9 MiB (0%)

  84. Language : Chinese

  85. Default : No

  86. Forced : No

  87. Original source medium : Blu-ray


  88. Text #3

  89. ID : 5

  90. ID in the original source medium : 4612 (0x1204)

  91. Format : PGS

  92. Muxing mode : zlib

  93. Codec ID : S_HDMV/PGS

  94. Codec ID/Info : Picture based subtitle format used on BDs/HD-DVDs

  95. Duration : 1 h 36 min

  96. Bit rate : 28.7 kb/s

  97. Count of elements : 2481

  98. Stream size : 19.9 MiB (0%)

  99. Language : Chinese

  100. Default : No

  101. Forced : No

  102. Original source medium : Blu-ray


  103. Text #4

  104. ID : 6

  105. ID in the original source medium : 4613 (0x1205)

  106. Format : PGS

  107. Muxing mode : zlib

  108. Codec ID : S_HDMV/PGS

  109. Codec ID/Info : Picture based subtitle format used on BDs/HD-DVDs

  110. Duration : 1 h 36 min

  111. Bit rate : 29.0 kb/s

  112. Count of elements : 2481

  113. Stream size : 20.1 MiB (0%)

  114. Language : Chinese

  115. Default : No

  116. Forced : No

  117. Original source medium : Blu-ray


  118. Text #5

  119. ID : 7

  120. ID in the original source medium : 4608 (0x1200)

  121. Format : PGS

  122. Muxing mode : zlib

  123. Codec ID : S_HDMV/PGS

  124. Codec ID/Info : Picture based subtitle format used on BDs/HD-DVDs

  125. Duration : 1 h 37 min

  126. Bit rate : 62.2 kb/s

  127. Count of elements : 2118

  128. Stream size : 43.2 MiB (1%)

  129. Language : English

  130. Default : No

  131. Forced : No

  132. Original source medium : Blu-ray


  133. Menu

  134. 00:00:00.000 : en:Chapter 00

  135. 00:08:09.405 : en:Chapter 01

  136. 00:15:18.334 : en:Chapter 02

  137. 00:21:41.717 : en:Chapter 03

  138. 00:29:52.415 : en:Chapter 04

  139. 00:35:36.259 : en:Chapter 05

  140. 00:42:56.907 : en:Chapter 06

  141. 00:50:18.890 : en:Chapter 07

  142. 00:58:18.870 : en:Chapter 08

  143. 01:08:36.987 : en:Chapter 09

  144. 01:20:10.847 : en:Chapter 10

  145. 01:32:33.172 : en:Chapter 11




复制代码



文件下载


除非特别注明,本文『文科恋曲[中文字幕].Liberal.Arts.2012.1080p.BluRay.x265.10bit.DTS-bt9527.cc 7.39GB』来源于互联网机器人自动抓取,非本站原创。 浮游电影网不对本文拥有版权,如有侵犯,请联系邮箱:fuyouu#yandex.com[#换成@]投诉。我们会在15个工作日内删除。 但烦请转载时请标明出处:“本文转载于『浮游电影网』,原文地址:https://www.fuyouu.com/18109.html

评论吧骚年!

发表你的见解   

昵称*

E-mail*(建议输入,以便收到博主回复的提示邮件)

验证码*

您可以使用eMule或eMule Mod(Windows)、aMule(Win、Linux、Mac)等软件下载eD2k链接。。
eMule收藏集(.emulecollection)文件是您选中的所有链接的列表文件。eMule可以直接下载它们。
按住SHIFT键选择可以选中多个选择框。
可用文件名和大小选择器来选择文件。
文件名选择器帮您根据文件名称或后缀来选择文件。不分大小写。
符号使用:
和:空格( )、+
不包含:-
或:|
转义:一对英文引号("");
匹配开头:^
匹配结尾:$
例如:
选中所有名称中包含有“eMule”或“0.49c”字眼,但不包含有“exe”字眼的:emule|0.49c -exe
选中所有名称的开头是“eMule”,结尾是“0.49c”的:^emule 0.49c$
选中所有名称中带有“eMule 0.49c”的(必须是“eMule 0.49c”,中间没有别的字符,不能是“eMule fake 0.49c”),需要转义:"emule 0.49c"
大小选择器帮您根据文件大小选择文件。