当前位置: 首页 >> 欧美电影 >> 空中监狱[中文字幕].Conair.1997.1080p.BluRay.x265.10bit.DTS-bt9527.cc 7.60GB >> 正文

空中监狱[中文字幕].Conair.1997.1080p.BluRay.x265.10bit.DTS-bt9527.cc 7.60GB

2021年11月14日 22:16:14     电影发布:来源于网络     电影分类:欧美电影     评论(0)    

空中监狱[中文字幕].Conair.1997.1080p.BluRay.x265.10bit.DTS bt9527.cc 7.60GB 犯罪片 惊悚片 动作片 剧情片 欧美电影  第1张

◎译 名 空中监狱 / 惊天动地(港) / 空中囚犯 / 罪犯的空中之旅

◎片 名 Con Air

◎年 代 1997

◎产 地 美国

◎类 别 剧情 / 动作 / 惊悚 / 犯罪

◎语 言 英语

◎上映日期 1997-06-06(美国)

◎IMDb链接 https://www.imdb.com/title/tt0118880/

◎豆瓣评分 8.2/10 (166536人评价)

◎豆瓣链接 https://movie.douban.com/subject/1300618/

◎片 长 115分钟

◎导 演 西蒙·韦斯特 Simon West (id:1300732)

◎编 剧 斯科特·罗森伯格 Scott Rosenberg (id:1045248)

◎演 员 尼古拉斯·凯奇 Nicolas Cage (id:1054455)

约翰·库萨克 John Cusack (id:1018986)

约翰·马尔科维奇 John Malkovich (id:1041013)

文·瑞姆斯 Ving Rhames (id:1048129)

科尔姆·米尼 Colm Meaney (id:1019029)

麦凯尔泰·威廉逊 Mykelti Williamson (id:1031912)

尼克·齐兰德 Nick Chinlund (id:1040642)

大卫·查普尔 Dave Chappelle (id:1077857)

雷切尔·蒂科汀 Rachel Ticotin (id:1040638)

史蒂夫·布西密 Steve Buscemi (id:1054409)

丹尼·特雷霍 Danny Trejo (id:1044721)

迈克·康纳·盖尼 M.C. Gainey (id:1100584)

兰德里·阿尔伯特 Landry Allbright (id:1057037)

莫妮卡·波特 Monica Potter (id:1009276)

杰西·博雷格 Jesse Borrego (id:1055876)

何塞·祖尼加 José Zú?iga (id:1301811)

耐德·巴拉米 Ned Bellamy (id:1048233)

约翰·罗斯留斯 John Roselius (id:1337565)

弗瑞德里克·林恩 Fredric Lehne (id:1004785)

安吉拉·范泽斯通 Angela Featherstone (id:1000270)

道格·休切逊 Doug Hutchison (id:1018015)

大卫·莱姆希 David Ramsey (id:1312850)

埃米里奥·瑞弗拉 Emilio Rivera (id:1032260)

格雷格·科林斯 Greg Collins (id:1071934)

唐·戴维斯 Don S. Davis (id:1025257)

雷诺里·圣地亚哥 Renoly Santiago (id:1144875)

布伦丹·凯利 Brendan Kelly (id:1027494)

马里奥罗伯茨 Mario Roberts (id:1295776)

Ty Granderson Jones Ty Granderson Jones (id:1110809)

Earl Billings Earl Billings (id:1064846)

Billy Devlin Billy Devlin (id:1085846)

马克·金特尔 Mark Ginther (id:1284925)

小托马斯·罗萨莱斯 Thomas Rosales Jr. (id:1143150)

埃迪·佩雷斯 Eddie Perez (id:1294285)

杰夫·奥尔森 Jeff Olson (id:1127357)

马蒂·麦克索利 Marty McSorley (id:1120126)

布莱恩·库瑞 Brian Hayes Currie (id:1403831)

Barbara Sharma Barbara Sharma (id:1146050)

鲍勃·斯蒂芬森 Bob Stephenson (id:1159961)

皮特·安蒂克 Pete Antico (id:1277302)

吉尔伯特·罗萨莱斯 Gilbert Rosales (id:1144990)

斯科特·罗森伯格 Scott Rosenberg (id:1045248)

约翰·迪尔 John Diehl (id:1048227)

Christopher Robin Hood Christopher Robin Hood (id:1051154)

鲍沃斯·布斯 Powers Boothe (id:1018001)

Scott Ditty Scott Ditty (id:1081346)

克里斯·埃里斯 Chris Ellis (id:1088482)

康拉德·古德 Conrad Goode (id:1091827)

戴布思·格里尔 Dabbs Greer (id:1093941)

凯文·盖奇 Kevin Gage (id:1101199)

Marco Kyris Marco Kyris (id:1108252)

Kira Burt Kira Burt (id:1078788)

凯文·库尼 Kevin Cooney (id:1054975)

马修·巴里 Matthew Barry (id:1061255)

Carl Ciarfalio Carl Ciarfalio (id:1069576)

丹尼斯·伯克利 Dennis Burkley (id:1077543)

吉姆·科夫 Jim Kouf (id:1023146)

杰瑞·布鲁克海默 Jerry Bruckheimer (id:1049617)

乔纳森·汉斯雷 Jonathan Hensleigh (id:1286460)

肯尼·贝茨 Kenny Bates (id:1278088)

特沃·拉宾 Trevor Rabin (id:1014253)

马克·曼西纳 Mark Mancina (id:1032518)

David Tattersall David Tattersall (id:1276576)

克里斯·莱本森 Chris Lebenzon (id:1041806)

马修·巴里 Matthew Barry (id:1061255)

珍妮·麦卡蒂 Jeanne McCarthy (id:1291450)

Edward T. McAvoy Edward T. McAvoy (id:1023651)

Chas. Butcher Chas. Butcher (id:1279740)

Kris Evans Kris Evans (id:1283346)

Fay Kelly Fay Kelly (id:1288344)

小弗雷德·C·布鲁 Fred C. Blau Jr. (id:1278788)

托马斯·R·伯曼 Thomas R. Burman (id:1279663)

Francisco X. Pérez Francisco X. Pérez (id:1280155)

巴里·德雷班德-布尔曼 Bari Dreiband-Burman (id:1282711)

Craig Hosking Craig Hosking (id:1100422)

John J. Hermansen John J. Hermansen (id:1012989)

Bob Wagner Bob Wagner (id:1161649)

罗伯特·查平 Robert Chapin (id:1069731)

Christofer Dierdorff Christofer Dierdorff (id:1282435)

David Goldberg David Goldberg (id:1285036)

Lee Croft Lee Croft (id:1215427)

William Koshowany William Koshowany (id:1113194)

加内克·西尔斯 Janek Sirrs (id:1028831)

克莱格·巴朗 Craig Barron (id:1277981)

Darin Hollings Darin Hollings (id:1286814)

Mike Meaker Mike Meaker (id:1304042)

Steven J. Chambers Steven J. Chambers (id:1182217)

Larry Whitaker Larry Whitaker (id:1162188)

Kurt E. Soderling Kurt E. Soderling (id:1001382)

Gregory L. McMurry Gregory L. McMurry (id:1001651)

Keith Shartle Keith Shartle (id:1143178)

霍伊特·耶特曼 Hoyt Yeatman (id:1007234)

Chuck Shuman Chuck Shuman (id:1048780)

Timothy Taylor Timothy Taylor (id:1010384)

特拉维斯·鲍曼 Travis Baumann (id:1048779)

马克·丹菲特 Mark Dornfeld (id:1282612)

罗布·霍奇森 Rob Hodgson (id:1286743)

◎标 签 动作 / 尼古拉斯·凯奇 / 犯罪 / 美国 / 美国电影 / 空中监狱 / NicolasCage / 1997

◎简 介

空中监狱是美国运送全美最危险的罪犯而专设的飞机。卡麦伦(尼古拉斯?凯奇 Nicolas Cage 饰)坐上这趟飞机,不是因为他罪恶滔天,而是他为了赶在女儿生日那天,亲手给女儿一份礼物而申请的一次飞行。他在狱中表现良好,典狱官答应了他这个请求。然而,却有一个难题——在这趟飞机上,还押送着一帮杀人狂魔。

警探非常留神随时可能出现的危险,但防不胜防的是,飞行过程中那帮暴徒还是挟持了飞机上全部的警察,卡麦伦也被迫帮他们完成逃脱任务。

地面的联邦部队决定把飞机打下,把狂徒一网打尽,身陷险境的卡麦伦该逃出这个空中监狱?

◎获奖情况 (共2项)

第70届奥斯卡金像奖 (1998)

最佳音响(提名)

最佳原创歌曲(提名)

└──戴安·沃伦 (id:1055621)

  1. ##### MediaInfo ######

  2. General

  3. Unique ID : 331772643390554214732298400121956084604 (0xF999163CAEA7D80B3FFF6CADCBD02B7C)

  4. Complete name : [email protected]

  5. Format : Matroska

  6. Format version : Version 4

  7. File size : 7.60 GiB

  8. Duration : 1 h 55 min

  9. Overall bit rate : 9 428 kb/s

  10. Encoded date : UTC 2021-11-13 17:07:48

  11. Writing application : mkvmerge v53.0.0 ('Fool's Gold') 64-bit

  12. Writing library : libebml v1.4.1 + libmatroska v1.6.2


  13. Video

  14. ID : 1

  15. Format : HEVC

  16. Format/Info : High Efficiency Video Coding

  17. Format profile : Main [email protected]@Main

  18. Codec ID : V_MPEGH/ISO/HEVC

  19. Duration : 1 h 55 min

  20. Bit rate : 7 836 kb/s

  21. Width : 1 920 pixels

  22. Height : 820 pixels

  23. Display aspect ratio : 2.35:1

  24. Frame rate mode : Constant

  25. Frame rate : 23.976 (24000/1001/53354) FPS

  26. Color space : YUV

  27. Chroma subsampling : 4:2:0

  28. Bit depth : 10 bits

  29. Bits/(Pixel*Frame) : 0.208

  30. Stream size : 6.32 GiB (83%)

  31. Writing library : x265 3.5+2-g2b25c9ba0+45:[Windows][GCC 10.2.0][64 bit] Yuuki 10bit+8bit+12bit

  32. Encoding settings : rc=crf / crf=16.0000 / qcomp=0.60 / qpstep=4 / stats-write=0 / stats-read=0 / no-lossless / no-cu-lossless / aq-mode=3 / aq-strength=0.80 / cbqpoffs=0 / crqpoffs=0 / ipratio=1.40 / pbratio=1.30 / psy-rd=2.00 / psy-rdoq=0.00 / deblock=0:0 / ref=6 / limit-refs=1 / no-limit-modes / bframes=8 / b-adapt=2 / bframe-bias=0 / b-pyramid / b-intra / weightp / weightb / min-keyint=24 / max-keyint=240 / rc-lookahead=24 / gop-lookahead=0 / NTMzNTQ=uuDQuD2mJt9fsCf / scenecut=40 / hist-scenecut=0 / radl=0 / max-cu-size=64 / min-cu-size=8 / me=3 / subme=7 / merange=48 / rdoq-level=0 / rd=4 / rdpenalty=0 / dynamic-rd=0.00 / no-rd-refine / ----- / cutree / sao / no-rect / no-amp / no-open-gop / wpp / no-pmode / no-pme / no-psnr / no-ssim / nr-intra=0 / nr-inter=0 / no-constrained-intra / no-strong-intra-smoothing / max-tu-size=32 / tu-inter-depth=1 / tu-intra-depth=1 / limit-tu=0 / qg-size=32 / qpmax=69 / qpmin=0 / ----- / cpuid=533541111039 / frame-threads=5 / numa-pools=+ / log-level=2 / input-csp=1 / input-res=1920x820 / interlace=0 / level-idc=0 / high-tier=1 / uhd-bd=0 / no-allow-non-conformance / no-repeat-headers / aud / no-hrd / info / hash=0 / no-temporal-layers / lookahead-slices=0 / no-splice / no-intra-refresh / no-ssim-rd / signhide / no-tskip / max-merge=3 / temporal-mvp / no-frame-dup / no-hme / no-analyze-src-pics / no-sao-non-deblock / selective-sao=4 / early-skip / rskip / no-fast-intra / no-tskip-fast / no-splitrd-skip / zone-count=0 / no-strict-cbr / no-rc-grain / no-const-vbv / sar=0 / overscan=0 / videoformat=5 / range=0 / colorprim=2 / transfer=2 / colormatrix=2 / chromaloc=0 / display-window=0 / cll=0,0 / min-luma=0 / max-luma=1023 / log2-max-poc-lsb=8 / vui-timing-info / vui-hrd-info / slices=1 / no-opt-qp-pps / no-opt-ref-list-length-pps / no-multi-pass-opt-rps / scenecut-bias=0.05 / hist-threshold=0.03 / no-opt-cu-delta-qp / no-aq-motion / no-hdr10 / no-hdr10-opt / no-dhdr10-opt / no-idr-recovery-sei / analysis-reuse-level=0 / analysis-save-reuse-level=0 / analysis-load-reuse-level=0 / scale-factor=0 / refine-intra=0 / refine-inter=0 / refine-mv=1 / refine-ctu-distortion=0 / no-limit-sao / ctu-info=0 / no-lowpass-dct / refine-analysis-type=0 / copy-pic=1 / max-ausize-factor=1.0 / no-dynamic-refine / no-single-sei / no-hevc-aq / no-svt / no-field / qp-adaptation-range=1.00 / scenecut-aware-qp=0conformance-window-offsets / right=0 / bottom=0 / NTMzNTQ= / decoder-max-rate=0 / no-vbv-live-multi-pass

  33. Language : English

  34. Default : Yes

  35. Forced : No


  36. Audio

  37. ID : 2

  38. Format : DTS

  39. Format/Info : Digital Theater Systems

  40. Codec ID : A_DTS

  41. Duration : 1 h 55 min

  42. Bit rate mode : Constant

  43. Bit rate : 1 510 kb/s

  44. Channel(s) : 6 channels

  45. Channel layout : C L R Ls Rs LFE

  46. Sampling rate : 48.0 kHz

  47. Frame rate : 93.750 FPS (512 SPF)

  48. Bit depth : 24 bits

  49. Compression mode : Lossy

  50. Stream size : 1.22 GiB (16%)

  51. Default : Yes

  52. Forced : No


  53. Text #1

  54. ID : 3

  55. Format : PGS

  56. Muxing mode : zlib

  57. Codec ID : S_HDMV/PGS

  58. Codec ID/Info : Picture based subtitle format used on BDs/HD-DVDs

  59. Duration : 1 h 47 min

  60. Bit rate : 44.5 kb/s

  61. Count of elements : 1895

  62. Stream size : 34.3 MiB (0%)

  63. Language : Chinese

  64. Default : No

  65. Forced : No


  66. Text #2

  67. ID : 4

  68. Format : PGS

  69. Muxing mode : zlib

  70. Codec ID : S_HDMV/PGS

  71. Codec ID/Info : Picture based subtitle format used on BDs/HD-DVDs

  72. Duration : 1 h 47 min

  73. Bit rate : 44.9 kb/s

  74. Count of elements : 1895

  75. Stream size : 34.6 MiB (0%)

  76. Language : Chinese

  77. Default : No

  78. Forced : No


  79. Text #3

  80. ID : 5

  81. Format : PGS

  82. Muxing mode : zlib

  83. Codec ID : S_HDMV/PGS

  84. Codec ID/Info : Picture based subtitle format used on BDs/HD-DVDs

  85. Duration : 1 h 47 min

  86. Bit rate : 21.5 kb/s

  87. Count of elements : 1894

  88. Stream size : 16.6 MiB (0%)

  89. Language : Chinese

  90. Default : No

  91. Forced : No


  92. Text #4

  93. ID : 6

  94. Format : PGS

  95. Muxing mode : zlib

  96. Codec ID : S_HDMV/PGS

  97. Codec ID/Info : Picture based subtitle format used on BDs/HD-DVDs

  98. Duration : 1 h 47 min

  99. Bit rate : 21.9 kb/s

  100. Count of elements : 1894

  101. Stream size : 16.9 MiB (0%)

  102. Language : Chinese

  103. Default : No

  104. Forced : No


  105. Text #5

  106. ID : 7

  107. Format : PGS

  108. Muxing mode : zlib

  109. Codec ID : S_HDMV/PGS

  110. Codec ID/Info : Picture based subtitle format used on BDs/HD-DVDs

  111. Duration : 1 h 48 min

  112. Bit rate : 60.0 kb/s

  113. Count of elements : 2512

  114. Stream size : 46.6 MiB (1%)

  115. Language : English

  116. Default : No

  117. Forced : No


  118. Menu

  119. 00:00:00.000 : en:第 01 章

  120. 00:10:03.394 : en:第 02 章

  121. 00:28:25.912 : en:第 03 章

  122. 00:42:52.528 : en:第 04 章

  123. 00:57:22.981 : en:第 05 章

  124. 01:09:02.596 : en:第 06 章

  125. 01:22:53.301 : en:第 07 章

  126. 01:34:51.143 : en:第 08 章

  127. 01:40:36.530 : en:第 09 章

  128. 01:48:10.525 : en:第 10 章




复制代码



文件下载


除非特别注明,本文『空中监狱[中文字幕].Conair.1997.1080p.BluRay.x265.10bit.DTS-bt9527.cc 7.60GB』来源于互联网机器人自动抓取,非本站原创。 浮游电影网不对本文拥有版权,如有侵犯,请联系邮箱:fuyouu#yandex.com[#换成@]投诉。我们会在15个工作日内删除。 但烦请转载时请标明出处:“本文转载于『浮游电影网』,原文地址:https://www.fuyouu.com/18106.html

评论吧骚年!

发表你的见解   

昵称*

E-mail*(建议输入,以便收到博主回复的提示邮件)

验证码*

您可以使用eMule或eMule Mod(Windows)、aMule(Win、Linux、Mac)等软件下载eD2k链接。。
eMule收藏集(.emulecollection)文件是您选中的所有链接的列表文件。eMule可以直接下载它们。
按住SHIFT键选择可以选中多个选择框。
可用文件名和大小选择器来选择文件。
文件名选择器帮您根据文件名称或后缀来选择文件。不分大小写。
符号使用:
和:空格( )、+
不包含:-
或:|
转义:一对英文引号("");
匹配开头:^
匹配结尾:$
例如:
选中所有名称中包含有“eMule”或“0.49c”字眼,但不包含有“exe”字眼的:emule|0.49c -exe
选中所有名称的开头是“eMule”,结尾是“0.49c”的:^emule 0.49c$
选中所有名称中带有“eMule 0.49c”的(必须是“eMule 0.49c”,中间没有别的字符,不能是“eMule fake 0.49c”),需要转义:"emule 0.49c"
大小选择器帮您根据文件大小选择文件。