当前位置: 首页 >> 港台电影 >> 男与女[国粤语配音/中文字幕].Hong.Kong.Hong.Kong.1983.1080p.BluRay.x265.10bit.FLAC-bt9527.cc 5.78GB >> 正文

男与女[国粤语配音/中文字幕].Hong.Kong.Hong.Kong.1983.1080p.BluRay.x265.10bit.FLAC-bt9527.cc 5.78GB

2021年11月14日 22:15:08     电影发布:来源于网络     电影分类:港台电影     评论(0)    

男与女[国粤语配音/中文字幕].Hong.Kong.Hong.Kong.1983.1080p.BluRay.x265.10bit.FLAC bt9527.cc 5.78GB 爱情片 剧情片 港台电影  第1张

◎译 名 男与女 / Hong Kong, Hong Kong

◎片 名 男與女

◎年 代 1983

◎产 地 中国香港

◎类 别 剧情 / 爱情

◎语 言 汉语普通话 / 粤语

◎上映日期 1983-07-21(中国香港)

◎IMDb链接 https://www.imdb.com/title/tt0125784/

◎豆瓣评分 7.2/10 (2859人评价)

◎豆瓣链接 https://movie.douban.com/subject/1307396/

◎片 长 96分钟

◎导 演 蔡继光 Clifford Choi (id:1280705)

◎编 剧 蔡继光 Clifford Choi (id:1280705)

许默 Mak Hui (id:1377519)

◎演 员 万梓良 Alex Man (id:1023948)

钟楚红 Cherie Chung (id:1005541)

关海山 Hoi-Shan Kwan (id:1289167)

钱似莺 Tsi-Ang Chin (id:1211064)

曹查理 Charlie Cho (id:1275320)

罗烈 Lieh Lo (id:1012614)

黄志伟 Chi Wai Wong (id:1308890)

冼灏英 Thomas Sin Ho-Ying (id:1347644)

伍国健 Kwok-kin Ng (id:1418713)

何柏光 Pak-Kwong Ho (id:1350540)

邵逸夫 Run Run Shaw (id:1027801)

方逸华 Mona Fong (id:1283933)

黄家禧 Ka Hee Wong (id:1397249)

林敏怡 Man Yee Lam (id:1289301)

成錦榮 Chin Yung Shing (id:1350518)

苏振厚 Chen-Hou Su (id:1396088)

姜兴隆 Hsing-lung Chiang (id:1280639)

黄仁逵 Yank Wong (id:1301211)

冼林煜 Pomson Shi (id:1418319)

◎标 签 钟楚红 / 香港 / 香港电影 / 邵氏 / 万梓良 / 爱情 / 1983 / 蔡继光

◎简 介

孟思晨(钟楚红饰)自广东农村偷渡至香港,匿居于山间木屋区,与同为偷渡客的一群打工仔同居一室,迫于生计,沦为众男泄欲工具。泰国华侨江远生(万梓良饰)客居香港,流落街头靠打黑拳谋生。一次江远生与黑道人士发生冲突,躲避之际偶遇孟思晨。孟思晨助江远生藏匿,二人结下露水之缘。后思晨经人介绍认识独守空房的老木匠(关海山饰),答应为求子心切的他生子,条件则是与其同住并获取港人身份证。生活安定后,思晨又遇远生,二人互生爱意,偷偷幽会。远生的一身武艺被黑道老板(曹查理饰)看中,力捧其成为职业拳手,并许诺总决赛胜利后送其去美国栽培。不料总决赛之际,老板命其打假拳,并强迫其服用兴奋剂。而与此同时思晨看到“怀孕妇女不能赦免遣返离港”的新闻,万念俱灰。到底这对苦命鸳鸯能否看到人生曙光?

香港新浪潮导演蔡继光1983年的著名剧情片。以深度写实的手法表现回归前香港的焦虑不安,人性...

◎获奖情况 (共9项)

第20届台北金马影展 (1983)

金马奖 最佳剧情片(提名)

金马奖 最佳导演(提名)

└──蔡继光 (id:1280705)

金马奖 最佳男主角(提名)

└──万梓良 (id:1023948)

金马奖 最佳女主角(提名)

└──钟楚红 (id:1005541)

金马奖 最佳原著剧本

金马奖 最佳音效(提名)

└──徐炳光 (id:1377250)

第3届香港电影金像奖 (1984)

最佳男主角(提名)

└──万梓良 (id:1023948)

最佳女主角(提名)

└──钟楚红 (id:1005541)

最佳原创电影音乐(提名)

└──林敏怡 (id:1289301)

  1. ##### MediaInfo ######

  2. General

  3. Unique ID : 135379756965930784366458599875655285557 (0x65D9315A0F56A43EADEFC6D7BF70BB35)

  4. Complete name : [email protected]DQ.COM.mkv

  5. Format : Matroska

  6. Format version : Version 4

  7. File size : 5.78 GiB

  8. Duration : 1 h 36 min

  9. Overall bit rate mode : Variable

  10. Overall bit rate : 8 554 kb/s

  11. Movie name : Hong Kong Hong Kong - Blu-ray?

  12. Encoded date : UTC 2021-11-13 11:31:07

  13. Writing application : mkvmerge v62.0.0 ('Apollo') 64-bit

  14. Writing library : libebml v1.4.2 + libmatroska v1.6.4

  15. Cover : Yes

  16. Attachments : cover.jpg


  17. Video

  18. ID : 1

  19. Format : HEVC

  20. Format/Info : High Efficiency Video Coding

  21. Format profile : Main [email protected]@Main

  22. Codec ID : V_MPEGH/ISO/HEVC

  23. Duration : 1 h 36 min

  24. Bit rate : 7 597 kb/s

  25. Width : 1 916 pixels

  26. Height : 1 038 pixels

  27. Display aspect ratio : 1.85:1

  28. Frame rate mode : Constant

  29. Frame rate : 24.000 FPS

  30. Color space : YUV

  31. Chroma subsampling : 4:2:0

  32. Bit depth : 10 bits

  33. Bits/(Pixel*Frame) : 0.159

  34. Stream size : 5.14 GiB (89%)

  35. Writing library : x265 3.5+2-g2b25c9ba0+45:[Windows][GCC 10.2.0][64 bit] Yuuki 10bit+8bit+12bit

  36. Encoding settings : rc=crf / crf=19.0000 / qcomp=0.60 / qpstep=4 / stats-write=0 / stats-read=0 / no-lossless / no-cu-lossless / aq-mode=3 / aq-strength=0.90 / cbqpoffs=0 / crqpoffs=0 / ipratio=1.40 / pbratio=1.30 / psy-rd=2.00 / psy-rdoq=0.00 / deblock=0:0 / ref=6 / limit-refs=1 / no-limit-modes / bframes=8 / b-adapt=2 / bframe-bias=0 / b-pyramid / b-intra / weightp / weightb / min-keyint=24 / max-keyint=240 / rc-lookahead=24 / gop-lookahead=0 / NTMzNTQ=uuDQuD2mJt9fsCf / scenecut=40 / hist-scenecut=0 / radl=0 / max-cu-size=64 / min-cu-size=8 / me=3 / subme=7 / merange=48 / rdoq-level=0 / rd=4 / rdpenalty=0 / dynamic-rd=0.00 / no-rd-refine / ----- / cutree / sao / no-rect / no-amp / no-open-gop / wpp / no-pmode / no-pme / no-psnr / no-ssim / nr-intra=0 / nr-inter=0 / no-constrained-intra / no-strong-intra-smoothing / max-tu-size=32 / tu-inter-depth=1 / tu-intra-depth=1 / limit-tu=0 / qg-size=32 / qpmax=69 / qpmin=0 / ----- / cpuid=533541111039 / frame-threads=4 / numa-pools=+ / log-level=2 / input-csp=1 / input-res=1916x1038 / interlace=0 / level-idc=0 / high-tier=1 / uhd-bd=0 / no-allow-non-conformance / no-repeat-headers / aud / no-hrd / info / hash=0 / no-temporal-layers / lookahead-slices=0 / no-splice / no-intra-refresh / no-ssim-rd / signhide / no-tskip / max-merge=3 / temporal-mvp / no-frame-dup / no-hme / no-analyze-src-pics / no-sao-non-deblock / selective-sao=4 / early-skip / rskip / no-fast-intra / no-tskip-fast / no-splitrd-skip / zone-count=0 / no-strict-cbr / no-rc-grain / no-const-vbv / sar=0 / overscan=0 / videoformat=5 / range=0 / colorprim=2 / transfer=2 / colormatrix=2 / chromaloc=0 / display-window=0 / cll=0,0 / min-luma=0 / max-luma=1023 / log2-max-poc-lsb=8 / vui-timing-info / vui-hrd-info / slices=1 / no-opt-qp-pps / no-opt-ref-list-length-pps / no-multi-pass-opt-rps / scenecut-bias=0.05 / hist-threshold=0.03 / no-opt-cu-delta-qp / no-aq-motion / no-hdr10 / no-hdr10-opt / no-dhdr10-opt / no-idr-recovery-sei / analysis-reuse-level=0 / analysis-save-reuse-level=0 / analysis-load-reuse-level=0 / scale-factor=0 / refine-intra=0 / refine-inter=0 / refine-mv=1 / refine-ctu-distortion=0 / no-limit-sao / ctu-info=0 / no-lowpass-dct / refine-analysis-type=0 / copy-pic=1 / max-ausize-factor=1.0 / no-dynamic-refine / no-single-sei / no-hevc-aq / no-svt / no-field / qp-adaptation-range=1.00 / scenecut-aware-qp=0conformance-window-offsets / right=0 / bottom=0 / NTMzNTQ= / decoder-max-rate=0 / no-vbv-live-multi-pass

  37. Default : Yes

  38. Forced : No


  39. Audio #1

  40. ID : 2

  41. Format : FLAC

  42. Format/Info : Free Lossless Audio Codec

  43. Codec ID : A_FLAC

  44. Duration : 1 h 36 min

  45. Bit rate mode : Variable

  46. Bit rate : 463 kb/s

  47. Channel(s) : 2 channels

  48. Channel layout : L R

  49. Sampling rate : 48.0 kHz

  50. Frame rate : 11.719 FPS (4096 SPF)

  51. Bit depth : 16 bits

  52. Compression mode : Lossless

  53. Stream size : 321 MiB (5%)

  54. Title : Cantonese

  55. Writing library : libFLAC 1.2.1 (UTC 2007-09-17)

  56. Language : Chinese

  57. Default : Yes

  58. Forced : No


  59. Audio #2

  60. ID : 3

  61. Format : FLAC

  62. Format/Info : Free Lossless Audio Codec

  63. Codec ID : A_FLAC

  64. Duration : 1 h 36 min

  65. Bit rate mode : Variable

  66. Bit rate : 462 kb/s

  67. Channel(s) : 2 channels

  68. Channel layout : L R

  69. Sampling rate : 48.0 kHz

  70. Frame rate : 11.719 FPS (4096 SPF)

  71. Bit depth : 16 bits

  72. Compression mode : Lossless

  73. Stream size : 320 MiB (5%)

  74. Title : Mandarin

  75. Writing library : libFLAC 1.2.1 (UTC 2007-09-17)

  76. Language : Chinese

  77. Default : No

  78. Forced : No


  79. Text #1

  80. ID : 4

  81. Format : PGS

  82. Muxing mode : zlib

  83. Codec ID : S_HDMV/PGS

  84. Codec ID/Info : Picture based subtitle format used on BDs/HD-DVDs

  85. Duration : 1 h 34 min

  86. Bit rate : 20.4 kb/s

  87. Count of elements : 1916

  88. Stream size : 13.7 MiB (0%)

  89. Title : chs

  90. Language : Chinese

  91. Default : Yes

  92. Forced : No


  93. Text #2

  94. ID : 5

  95. Format : PGS

  96. Muxing mode : zlib

  97. Codec ID : S_HDMV/PGS

  98. Codec ID/Info : Picture based subtitle format used on BDs/HD-DVDs

  99. Duration : 1 h 34 min

  100. Bit rate : 20.4 kb/s

  101. Count of elements : 1916

  102. Stream size : 13.8 MiB (0%)

  103. Title : cht

  104. Language : Chinese

  105. Default : No

  106. Forced : No


  107. Text #3

  108. ID : 6

  109. Format : PGS

  110. Muxing mode : zlib

  111. Codec ID : S_HDMV/PGS

  112. Codec ID/Info : Picture based subtitle format used on BDs/HD-DVDs

  113. Duration : 1 h 34 min

  114. Bit rate : 24.0 kb/s

  115. Count of elements : 1916

  116. Stream size : 16.1 MiB (0%)

  117. Title : eng

  118. Language : English

  119. Default : No

  120. Forced : No


  121. Menu

  122. 00:00:00.000 : en:Chapter 01

  123. 00:07:39.208 : en:Chapter 02

  124. 00:17:20.916 : en:Chapter 03

  125. 00:24:52.291 : en:Chapter 04

  126. 00:32:25.208 : en:Chapter 05

  127. 00:40:57.083 : en:Chapter 06

  128. 00:48:53.416 : en:Chapter 07

  129. 00:56:22.791 : en:Chapter 08

  130. 01:05:04.124 : en:Chapter 09

  131. 01:12:19.624 : en:Chapter 10

  132. 01:20:52.291 : en:Chapter 11

  133. 01:29:12.124 : en:Chapter 12


文件下载


除非特别注明,本文『男与女[国粤语配音/中文字幕].Hong.Kong.Hong.Kong.1983.1080p.BluRay.x265.10bit.FLAC-bt9527.cc 5.78GB』来源于互联网机器人自动抓取,非本站原创。 浮游电影网不对本文拥有版权,如有侵犯,请联系邮箱:fuyouu#yandex.com[#换成@]投诉。我们会在15个工作日内删除。 但烦请转载时请标明出处:“本文转载于『浮游电影网』,原文地址:https://www.fuyouu.com/18105.html

评论吧骚年!

发表你的见解   

昵称*

E-mail*(建议输入,以便收到博主回复的提示邮件)

验证码*

您可以使用eMule或eMule Mod(Windows)、aMule(Win、Linux、Mac)等软件下载eD2k链接。。
eMule收藏集(.emulecollection)文件是您选中的所有链接的列表文件。eMule可以直接下载它们。
按住SHIFT键选择可以选中多个选择框。
可用文件名和大小选择器来选择文件。
文件名选择器帮您根据文件名称或后缀来选择文件。不分大小写。
符号使用:
和:空格( )、+
不包含:-
或:|
转义:一对英文引号("");
匹配开头:^
匹配结尾:$
例如:
选中所有名称中包含有“eMule”或“0.49c”字眼,但不包含有“exe”字眼的:emule|0.49c -exe
选中所有名称的开头是“eMule”,结尾是“0.49c”的:^emule 0.49c$
选中所有名称中带有“eMule 0.49c”的(必须是“eMule 0.49c”,中间没有别的字符,不能是“eMule fake 0.49c”),需要转义:"emule 0.49c"
大小选择器帮您根据文件大小选择文件。