当前位置: 首页 >> 欧美电影 >> 重审基督[中文字幕].The.Case.for.Christ.2017.1080p.BluRay.x265.10bit.DTS-bt9527.Cc 8.15GB >> 正文

重审基督[中文字幕].The.Case.for.Christ.2017.1080p.BluRay.x265.10bit.DTS-bt9527.Cc 8.15GB

2021年11月14日 22:09:57     电影发布:来源于网络     电影分类:欧美电影     评论(0)    

重审基督[中文字幕].The.Case.for.Christ.2017.1080p.BluRay.x265.10bit.DTS bt9527.Cc 8.15GB 传记 历史 剧情片 欧美电影  第1张

◎译 名 重审基督 / 重审耶稣 / 基督事件簿(台)

◎片 名 The Case for Christ

◎年 代 2017

◎产 地 美国

◎类 别 剧情 / 传记 / 历史

◎语 言 英语

◎上映日期 2017-04-07(美国)

◎IMDb链接 https://www.imdb.com/title/tt6113488/

◎豆瓣评分 7.5/10 (903人评价)

◎豆瓣链接 https://movie.douban.com/subject/26923094/

◎片 长 112分钟

◎导 演 乔·戈恩 Jon Gunn (id:1285649)

◎编 剧 布莱恩·伯德 Brian Bird (id:1278681)

李·史特博 Lee Strobel (id:1371889)

◎演 员 迈克·沃格尔 Mike Vogel (id:1027793)

埃丽卡·克里斯滕森 Erika Christensen (id:1025180)

费·唐纳薇 Faye Dunaway (id:1013857)

罗伯特·福斯特 Robert Forster (id:1055150)

弗兰基·费森 Frankie Faison (id:1019102)

L·斯科特·卡德维尔 L. Scott Caldwell (id:1068859)

迈克·普涅夫斯基 Mike Pniewski (id:1371890)

凯文·塞兹摩尔 Kevin Sizemore (id:1045448)

汤姆·诺维茨基 Tom Nowicki (id:1371891)

罗斯·布莱克维尔 Rus Blackwell (id:1064258)

乔丹·考克斯 Jordan Cox (id:1371892)

雷内尔·吉布斯 Renell Gibbs (id:1371893)

黑利·罗森沃瑟 Haley Rosenwasser (id:1371894)

特雷西·邦纳 Tracey Bonner (id:1349026)

马修·布兰赫 Matthew Brenher (id:1371896)

布雷特·赖斯 Brett Rice (id:1414281)

雅各布·罗兹 Jacob Rhodes (id:1413054)

迈克·普罗沃斯 Michael Provost (id:1399122)

凯利·拉莫尔·威尔逊 Kelly Lamor Wilson (id:1447214)

马克·德米特 Marc Demeter (id:1460417)

◎标 签 基督教 / 信仰 / 福音电影 / 宗教 / 真实事件改编 / 美国 / 人性 / 2017

◎简 介

改编自基督家作家李·斯特罗贝尔(Lee Strobel)的畅销纪实小说,此题材也曾被拍摄为同名纪录片

故事描述出生于二次大战婴儿潮的李·斯特罗贝尔(Lee Strobel),出生于相信达尔文进化论得世代,相信人生的成功倚靠于自己的努力。他毕业于密苏里大学新闻系以及耶鲁法学院,学历极为亮眼,进入享誉全球的芝加哥论坛报工作。

然而,对李·斯特罗贝尔人生最大的震撼,反而是妻子进入教会,决定成为基督徒。这带给家庭莫大的风暴与两人多次的争执,史特博认为要深入检视圣经与相关纪录之真实性,以及这个信仰真伪...他开始与妻子到教会,为的是更多调查基督教...。

  1. ##### MediaInfo ######

  2. General

  3. Unique ID : 292142953345363500693712303635884781271 (0xDBC8AFAA14545DB7BE1D99092A55AED7)

  4. Complete name : [email protected]Q.COM.mkv

  5. Format : Matroska

  6. Format version : Version 4

  7. File size : 8.15 GiB

  8. Duration : 1 h 53 min

  9. Overall bit rate : 10.3 Mb/s

  10. Encoded date : UTC 2021-11-13 11:58:30

  11. Writing application : mkvmerge v53.0.0 ('Fool's Gold') 64-bit

  12. Writing library : libebml v1.4.1 + libmatroska v1.6.2


  13. Video

  14. ID : 1

  15. Format : HEVC

  16. Format/Info : High Efficiency Video Coding

  17. Format profile : Main [email protected]@Main

  18. Codec ID : V_MPEGH/ISO/HEVC

  19. Duration : 1 h 53 min

  20. Bit rate : 8 632 kb/s

  21. Width : 1 920 pixels

  22. Height : 800 pixels

  23. Display aspect ratio : 2.40:1

  24. Frame rate mode : Constant

  25. Frame rate : 23.976 (24000/1001/53354) FPS

  26. Color space : YUV

  27. Chroma subsampling : 4:2:0

  28. Bit depth : 10 bits

  29. Bits/(Pixel*Frame) : 0.234

  30. Stream size : 6.86 GiB (84%)

  31. Writing library : x265 3.5+2-g2b25c9ba0+45:[Windows][GCC 10.2.0][64 bit] Yuuki 10bit+8bit+12bit

  32. Encoding settings : rc=crf / crf=16.0000 / qcomp=0.60 / qpstep=4 / stats-write=0 / stats-read=0 / no-lossless / no-cu-lossless / aq-mode=3 / aq-strength=0.80 / cbqpoffs=0 / crqpoffs=0 / ipratio=1.40 / pbratio=1.30 / psy-rd=2.00 / psy-rdoq=0.00 / deblock=0:0 / ref=6 / limit-refs=1 / no-limit-modes / bframes=8 / b-adapt=2 / bframe-bias=0 / b-pyramid / b-intra / weightp / weightb / min-keyint=24 / max-keyint=240 / rc-lookahead=24 / gop-lookahead=0 / NTMzNTQ=uuDQuD2mJt9fsCf / scenecut=40 / hist-scenecut=0 / radl=0 / max-cu-size=64 / min-cu-size=8 / me=3 / subme=7 / merange=48 / rdoq-level=0 / rd=4 / rdpenalty=0 / dynamic-rd=0.00 / no-rd-refine / ----- / cutree / sao / no-rect / no-amp / no-open-gop / wpp / no-pmode / no-pme / no-psnr / no-ssim / nr-intra=0 / nr-inter=0 / no-constrained-intra / no-strong-intra-smoothing / max-tu-size=32 / tu-inter-depth=1 / tu-intra-depth=1 / limit-tu=0 / qg-size=32 / qpmax=69 / qpmin=0 / ----- / cpuid=533541111039 / frame-threads=5 / numa-pools=+ / log-level=2 / input-csp=1 / input-res=1920x800 / interlace=0 / level-idc=0 / high-tier=1 / uhd-bd=0 / no-allow-non-conformance / no-repeat-headers / aud / no-hrd / info / hash=0 / no-temporal-layers / lookahead-slices=0 / no-splice / no-intra-refresh / no-ssim-rd / signhide / no-tskip / max-merge=3 / temporal-mvp / no-frame-dup / no-hme / no-analyze-src-pics / no-sao-non-deblock / selective-sao=4 / early-skip / rskip / no-fast-intra / no-tskip-fast / no-splitrd-skip / zone-count=0 / no-strict-cbr / no-rc-grain / no-const-vbv / sar=0 / overscan=0 / videoformat=5 / range=0 / colorprim=2 / transfer=2 / colormatrix=2 / chromaloc=0 / display-window=0 / cll=0,0 / min-luma=0 / max-luma=1023 / log2-max-poc-lsb=8 / vui-timing-info / vui-hrd-info / slices=1 / no-opt-qp-pps / no-opt-ref-list-length-pps / no-multi-pass-opt-rps / scenecut-bias=0.05 / hist-threshold=0.03 / no-opt-cu-delta-qp / no-aq-motion / no-hdr10 / no-hdr10-opt / no-dhdr10-opt / no-idr-recovery-sei / analysis-reuse-level=0 / analysis-save-reuse-level=0 / analysis-load-reuse-level=0 / scale-factor=0 / refine-intra=0 / refine-inter=0 / refine-mv=1 / refine-ctu-distortion=0 / no-limit-sao / ctu-info=0 / no-lowpass-dct / refine-analysis-type=0 / copy-pic=1 / max-ausize-factor=1.0 / no-dynamic-refine / no-single-sei / no-hevc-aq / no-svt / no-field / qp-adaptation-range=1.00 / scenecut-aware-qp=0conformance-window-offsets / right=0 / bottom=0 / NTMzNTQ= / decoder-max-rate=0 / no-vbv-live-multi-pass

  33. Language : English

  34. Default : Yes

  35. Forced : No


  36. Audio

  37. ID : 2

  38. ID in the original source medium : 4352 (0x1100)

  39. Format : DTS

  40. Format/Info : Digital Theater Systems

  41. Codec ID : A_DTS

  42. Duration : 1 h 53 min

  43. Bit rate mode : Constant

  44. Bit rate : 1 509 kb/s

  45. Channel(s) : 6 channels

  46. Channel layout : C L R Ls Rs LFE

  47. Sampling rate : 48.0 kHz

  48. Frame rate : 93.750 FPS (512 SPF)

  49. Bit depth : 24 bits

  50. Compression mode : Lossy

  51. Stream size : 1.20 GiB (15%)

  52. Language : English

  53. Default : Yes

  54. Forced : No

  55. Original source medium : Blu-ray


  56. Text #1

  57. ID : 3

  58. ID in the original source medium : 4610 (0x1202)

  59. Format : PGS

  60. Muxing mode : zlib

  61. Codec ID : S_HDMV/PGS

  62. Codec ID/Info : Picture based subtitle format used on BDs/HD-DVDs

  63. Duration : 1 h 50 min

  64. Bit rate : 66.9 kb/s

  65. Count of elements : 4064

  66. Stream size : 53.1 MiB (1%)

  67. Language : Chinese

  68. Default : Yes

  69. Forced : No

  70. Original source medium : Blu-ray


  71. Text #2

  72. ID : 4

  73. ID in the original source medium : 4611 (0x1203)

  74. Format : PGS

  75. Muxing mode : zlib

  76. Codec ID : S_HDMV/PGS

  77. Codec ID/Info : Picture based subtitle format used on BDs/HD-DVDs

  78. Duration : 1 h 50 min

  79. Bit rate : 67.4 kb/s

  80. Count of elements : 4064

  81. Stream size : 53.4 MiB (1%)

  82. Language : Chinese

  83. Default : No

  84. Forced : No

  85. Original source medium : Blu-ray


  86. Text #3

  87. ID : 5

  88. ID in the original source medium : 4612 (0x1204)

  89. Format : PGS

  90. Muxing mode : zlib

  91. Codec ID : S_HDMV/PGS

  92. Codec ID/Info : Picture based subtitle format used on BDs/HD-DVDs

  93. Duration : 1 h 50 min

  94. Bit rate : 37.6 kb/s

  95. Count of elements : 4064

  96. Stream size : 29.8 MiB (0%)

  97. Language : Chinese

  98. Default : No

  99. Forced : No

  100. Original source medium : Blu-ray


  101. Text #4

  102. ID : 6

  103. ID in the original source medium : 4613 (0x1205)

  104. Format : PGS

  105. Muxing mode : zlib

  106. Codec ID : S_HDMV/PGS

  107. Codec ID/Info : Picture based subtitle format used on BDs/HD-DVDs

  108. Duration : 1 h 50 min

  109. Bit rate : 38.1 kb/s

  110. Count of elements : 4064

  111. Stream size : 30.2 MiB (0%)

  112. Language : Chinese

  113. Default : No

  114. Forced : No

  115. Original source medium : Blu-ray


  116. Text #5

  117. ID : 7

  118. ID in the original source medium : 4608 (0x1200)

  119. Format : PGS

  120. Muxing mode : zlib

  121. Codec ID : S_HDMV/PGS

  122. Codec ID/Info : Picture based subtitle format used on BDs/HD-DVDs

  123. Duration : 1 h 52 min

  124. Bit rate : 54.6 kb/s

  125. Count of elements : 4462

  126. Stream size : 43.9 MiB (1%)

  127. Language : English

  128. Default : No

  129. Forced : No

  130. Original source medium : Blu-ray


  131. Menu

  132. 00:00:00.000 : en:第 01 章

  133. 00:06:55.665 : en:第 02 章

  134. 00:10:37.428 : en:第 03 章

  135. 00:15:38.437 : en:第 04 章

  136. 00:23:55.767 : en:第 05 章

  137. 00:31:19.752 : en:第 06 章

  138. 00:35:36.300 : en:第 07 章

  139. 00:44:18.947 : en:第 08 章

  140. 00:48:51.011 : en:第 09 章

  141. 00:56:06.738 : en:第 10 章

  142. 01:02:09.434 : en:第 11 章

  143. 01:10:02.072 : en:第 12 章

  144. 01:16:04.393 : en:第 13 章

  145. 01:22:02.375 : en:第 14 章

  146. 01:27:58.982 : en:第 15 章

  147. 01:32:04.477 : en:第 16 章

  148. 01:35:28.639 : en:第 17 章

  149. 01:39:50.859 : en:第 18 章

  150. 01:45:51.887 : en:第 19 章

  151. 01:48:31.254 : en:第 20 章




复制代码



文件下载


除非特别注明,本文『重审基督[中文字幕].The.Case.for.Christ.2017.1080p.BluRay.x265.10bit.DTS-bt9527.Cc 8.15GB』来源于互联网机器人自动抓取,非本站原创。 浮游电影网不对本文拥有版权,如有侵犯,请联系邮箱:fuyouu#yandex.com[#换成@]投诉。我们会在15个工作日内删除。 但烦请转载时请标明出处:“本文转载于『浮游电影网』,原文地址:https://www.fuyouu.com/18104.html

评论吧骚年!

发表你的见解   

昵称*

E-mail*(建议输入,以便收到博主回复的提示邮件)

验证码*

您可以使用eMule或eMule Mod(Windows)、aMule(Win、Linux、Mac)等软件下载eD2k链接。。
eMule收藏集(.emulecollection)文件是您选中的所有链接的列表文件。eMule可以直接下载它们。
按住SHIFT键选择可以选中多个选择框。
可用文件名和大小选择器来选择文件。
文件名选择器帮您根据文件名称或后缀来选择文件。不分大小写。
符号使用:
和:空格( )、+
不包含:-
或:|
转义:一对英文引号("");
匹配开头:^
匹配结尾:$
例如:
选中所有名称中包含有“eMule”或“0.49c”字眼,但不包含有“exe”字眼的:emule|0.49c -exe
选中所有名称的开头是“eMule”,结尾是“0.49c”的:^emule 0.49c$
选中所有名称中带有“eMule 0.49c”的(必须是“eMule 0.49c”,中间没有别的字符,不能是“eMule fake 0.49c”),需要转义:"emule 0.49c"
大小选择器帮您根据文件大小选择文件。