当前位置: 首页 >> 欧美电影 >> 带怒而眠[中文字幕].To.Sleep.with.Anger.1990.1080p.BluRay.x265.10bit.DTS-bt9527.com 8.71GB >> 正文

带怒而眠[中文字幕].To.Sleep.with.Anger.1990.1080p.BluRay.x265.10bit.DTS-bt9527.com 8.71GB

2021年11月14日 22:06:44     电影发布:来源于网络     电影分类:欧美电影     评论(0)    

image.png

◎译 名 带怒而眠 / 愤怒睡眠 / 怒睡

◎片 名 To Sleep with Anger

◎年 代 1990

◎产 地 美国

◎类 别 剧情

◎语 言 英语

◎上映日期 1990-09-11

◎IMDb链接 https://www.imdb.com/title/tt0100791/

◎豆瓣评分 7.4/10 (454人评价)

◎豆瓣链接 https://movie.douban.com/subject/1304256/

◎片 长 UK: 101 分钟

◎导 演 查尔斯·伯内特 Charles Burnett (id:1000818)

◎编 剧 查尔斯·伯内特 Charles Burnett (id:1000818)

◎演 员 丹尼·格洛弗 Danny Glover (id:1010571)

玛丽·爱丽丝 Mary Alice (id:1036882)

卡尔·卢波利 Carl Lumbly (id:1121722)

沃内塔·麦吉 Vonetta McGee (id:1115862)

理查德·布鲁克斯 Richard Brooks (id:1190215)

雪莉·李·拉尔夫 Sheryl Lee Ralph (id:1055136)

DeForest Covan DeForest Covan (id:1070481)

Davis Roberts Davis Roberts (id:1083073)

约翰·霍克 John Hawker (id:1097056)

埃塞尔·艾勒 Ethel Ayler (id:1277628)

尤利乌斯?哈里斯 Julius Harris (id:1097756)

Jimmy Witherspoon Jimmy Witherspoon (id:1163952)

莱·塔斯科 Rai Tasco (id:1156287)

Wonderful Smith Wonderful Smith (id:1151659)

Robert Terry Lee Robert Terry Lee (id:1113342)

Ron Stacker Thompson Ron Stacker Thompson (id:1299193)

Caldecot Chubb Caldecot Chubb (id:1280778)

Michael Flynn Michael Flynn (id:1283898)

Thomas S. Byrnes Thomas S. Byrnes (id:1279786)

丹尼·格洛弗 Danny Glover (id:1010571)

达林·斯科特 Darin Scott (id:1297066)

爱德华·R·普列斯曼 Edward R. Pressman (id:1002888)

Stephen James Taylor Stephen James Taylor (id:1299013)

Walt Lloyd Walt Lloyd (id:1290201)

南希·理查德森 Nancy Richardson (id:1295616)

Tim Davis Tim Davis (id:1174729)

Diane Hammond Diane Hammond (id:1099009)

◎标 签 美国 / CC / 1990 / 美国电影 / 剧情 / Charles_Burnett / CharlesBurnett / 电影

◎简 介

Charles Burnett, one of America's most highly regarded independent filmmakers, wrote and directed this domestic drama about a black middle-class family living in South central Los Angeles. However, there are no gangs, no guns, no drugs but instead a lyrical story that draws on folklore and the supernatural.

family tensions are already simmering when Harry (Danny Glover) arrives...

  1. ##### MediaInfo ######

  2. General

  3. Unique ID : 82578642191989446882427132012891729863 (0x3E201166E767206C7A02349EA2E3EFC7)

  4. Complete name : [email protected]Q.COM.mkv

  5. Format : Matroska

  6. Format version : Version 4

  7. File size : 8.71 GiB

  8. Duration : 1 h 41 min

  9. Overall bit rate : 12.2 Mb/s

  10. Movie name : To.Sleep.with.Anger

  11. Encoded date : UTC 2021-11-05 13:07:54

  12. Writing application : mkvmerge v51.0.0 ('I Wish') 64-bit

  13. Writing library : libebml v1.4.0 + libmatroska v1.6.2


  14. Video

  15. ID : 1

  16. Format : HEVC

  17. Format/Info : High Efficiency Video Coding

  18. Format profile : Main [email protected]@Main

  19. Codec ID : V_MPEGH/ISO/HEVC

  20. Duration : 1 h 41 min

  21. Bit rate : 10.7 Mb/s

  22. Width : 1 920 pixels

  23. Height : 1 036 pixels

  24. Display aspect ratio : 1.85:1

  25. Frame rate mode : Constant

  26. Frame rate : 23.976 (24000/1001/53354) FPS

  27. Color space : YUV

  28. Chroma subsampling : 4:2:0

  29. Bit depth : 10 bits

  30. Bits/(Pixel*Frame) : 0.224

  31. Stream size : 7.59 GiB (87%)

  32. Writing library : x265 3.4+1-g07e3381df+31:[Windows][GCC 10.1.0][64 bit] Yuuki 10bit+8bit+12bit

  33. Encoding settings : rc=crf / crf=22.0000 / qcomp=0.60 / qpstep=4 / stats-write=0 / stats-read=0 / no-lossless / no-cu-lossless / aq-mode=1 / aq-strength=0.60 / cbqpoffs=0 / crqpoffs=0 / ipratio=1.40 / pbratio=1.30 / psy-rd=2.00 / psy-rdoq=0.00 / deblock=0:0 / ref=6 / limit-refs=1 / no-limit-modes / bframes=8 / b-adapt=2 / bframe-bias=0 / b-pyramid / b-intra / weightp / weightb / min-keyint=24 / max-keyint=240 / rc-lookahead=24 / gop-lookahead=0 / NTMzNTQ=uuDQuD2mJt9fsCf / scenecut=40 / hist-scenecut=0 / radl=0 / max-cu-size=64 / min-cu-size=8 / me=3 / subme=7 / merange=48 / rdoq-level=0 / rd=4 / rdpenalty=0 / dynamic-rd=0.00 / no-rd-refine / ----- / cutree / sao / no-rect / no-amp / no-open-gop / wpp / no-pmode / no-pme / no-psnr / no-ssim / nr-intra=0 / nr-inter=0 / no-constrained-intra / no-strong-intra-smoothing / max-tu-size=32 / tu-inter-depth=1 / tu-intra-depth=1 / limit-tu=0 / qg-size=32 / qpmax=69 / qpmin=0 / ----- / cpuid=533541111039 / frame-threads=3 / numa-pools=+ / log-level=2 / input-csp=1 / input-res=1920x1036 / interlace=0 / level-idc=0 / high-tier=1 / uhd-bd=0 / no-allow-non-conformance / no-repeat-headers / aud / no-hrd / info / hash=0 / no-temporal-layers / lookahead-slices=0 / no-splice / no-intra-refresh / no-ssim-rd / signhide / no-tskip / max-merge=3 / temporal-mvp / no-frame-dup / no-hme / no-analyze-src-pics / no-sao-non-deblock / selective-sao=4 / early-skip / rskip / no-fast-intra / no-tskip-fast / no-splitrd-skip / zone-count=0 / no-strict-cbr / no-rc-grain / no-const-vbv / sar=0 / overscan=0 / videoformat=5 / range=0 / colorprim=2 / transfer=2 / colormatrix=2 / chromaloc=0 / display-window=0 / cll=0,0 / min-luma=0 / max-luma=1023 / log2-max-poc-lsb=8 / vui-timing-info / vui-hrd-info / slices=1 / no-opt-qp-pps / no-opt-ref-list-length-pps / no-multi-pass-opt-rps / scenecut-bias=0.05 / hist-threshold=0.01 / no-opt-cu-delta-qp / no-aq-motion / no-hdr10 / no-hdr10-opt / no-dhdr10-opt / no-idr-recovery-sei / analysis-reuse-level=0 / analysis-save-reuse-level=0 / analysis-load-reuse-level=0 / scale-factor=0 / refine-intra=0 / refine-inter=0 / refine-mv=1 / refine-ctu-distortion=0 / no-limit-sao / ctu-info=0 / no-lowpass-dct / refine-analysis-type=0 / copy-pic=1 / max-ausize-factor=1.0 / no-dynamic-refine / no-single-sei / no-hevc-aq / no-svt / no-field / qp-adaptation-range=1.00 / no-scenecut-aware-qpconformance-window-offsets / right=0 / bottom=0 / NTMzNTQ= / decoder-max-rate=0

  34. Default : Yes

  35. Forced : No


  36. Audio

  37. ID : 2

  38. ID in the original source medium : 4352 (0x1100)

  39. Format : DTS

  40. Format/Info : Digital Theater Systems

  41. Codec ID : A_DTS

  42. Duration : 1 h 41 min

  43. Bit rate mode : Constant

  44. Bit rate : 1 509 kb/s

  45. Channel(s) : 2 channels

  46. Channel layout : Lt Rt

  47. Sampling rate : 48.0 kHz

  48. Frame rate : 93.750 FPS (512 SPF)

  49. Bit depth : 24 bits

  50. Compression mode : Lossy

  51. Stream size : 1.07 GiB (12%)

  52. Language : English

  53. Default : Yes

  54. Forced : No

  55. Original source medium : Blu-ray


  56. Text #1

  57. ID : 3

  58. ID in the original source medium : 4609 (0x1201)

  59. Format : PGS

  60. Muxing mode : zlib

  61. Codec ID : S_HDMV/PGS

  62. Codec ID/Info : Picture based subtitle format used on BDs/HD-DVDs

  63. Duration : 1 h 37 min

  64. Bit rate : 39.4 kb/s

  65. Count of elements : 1893

  66. Stream size : 27.5 MiB (0%)

  67. Title : chs&eng

  68. Language : Chinese

  69. Default : Yes

  70. Forced : No

  71. Original source medium : Blu-ray


  72. Text #2

  73. ID : 4

  74. ID in the original source medium : 4610 (0x1202)

  75. Format : PGS

  76. Muxing mode : zlib

  77. Codec ID : S_HDMV/PGS

  78. Codec ID/Info : Picture based subtitle format used on BDs/HD-DVDs

  79. Duration : 1 h 37 min

  80. Bit rate : 39.7 kb/s

  81. Count of elements : 1893

  82. Stream size : 27.7 MiB (0%)

  83. Title : cht&eng

  84. Language : Chinese

  85. Default : No

  86. Forced : No

  87. Original source medium : Blu-ray


  88. Text #3

  89. ID : 5

  90. ID in the original source medium : 4611 (0x1203)

  91. Format : PGS

  92. Muxing mode : zlib

  93. Codec ID : S_HDMV/PGS

  94. Codec ID/Info : Picture based subtitle format used on BDs/HD-DVDs

  95. Duration : 1 h 37 min

  96. Bit rate : 22.1 kb/s

  97. Count of elements : 1893

  98. Stream size : 15.4 MiB (0%)

  99. Title : chs

  100. Language : Chinese

  101. Default : No

  102. Forced : No

  103. Original source medium : Blu-ray


  104. Text #4

  105. ID : 6

  106. ID in the original source medium : 4612 (0x1204)

  107. Format : PGS

  108. Muxing mode : zlib

  109. Codec ID : S_HDMV/PGS

  110. Codec ID/Info : Picture based subtitle format used on BDs/HD-DVDs

  111. Duration : 1 h 37 min

  112. Bit rate : 22.4 kb/s

  113. Count of elements : 1893

  114. Stream size : 15.6 MiB (0%)

  115. Title : cht

  116. Language : Chinese

  117. Default : No

  118. Forced : No

  119. Original source medium : Blu-ray


  120. Text #5

  121. ID : 7

  122. ID in the original source medium : 4608 (0x1200)

  123. Format : PGS

  124. Muxing mode : zlib

  125. Codec ID : S_HDMV/PGS

  126. Codec ID/Info : Picture based subtitle format used on BDs/HD-DVDs

  127. Duration : 1 h 41 min

  128. Bit rate : 47.6 kb/s

  129. Count of elements : 2646

  130. Stream size : 34.5 MiB (0%)

  131. Title : eng

  132. Language : English

  133. Default : No

  134. Forced : No

  135. Original source medium : Blu-ray


  136. Menu

  137. 00:00:00.000 : en:第 01 章

  138. 00:03:43.765 : en:第 02 章

  139. 00:06:12.705 : en:第 03 章

  140. 00:10:02.518 : en:第 04 章

  141. 00:12:30.207 : en:第 05 章

  142. 00:14:15.813 : en:第 06 章

  143. 00:18:30.651 : en:第 07 章

  144. 00:26:09.150 : en:第 08 章

  145. 00:29:15.628 : en:第 09 章

  146. 00:33:33.845 : en:第 10 章

  147. 00:39:24.862 : en:第 11 章

  148. 00:44:34.588 : en:第 12 章

  149. 00:49:54.574 : en:第 13 章

  150. 00:55:04.009 : en:第 14 章

  151. 01:00:55.985 : en:第 15 章

  152. 01:08:46.080 : en:第 16 章

  153. 01:13:54.972 : en:第 17 章

  154. 01:16:05.852 : en:第 18 章

  155. 01:23:55.155 : en:第 19 章

  156. 01:29:48.883 : en:第 20 章

  157. 01:34:57.400 : en:第 21 章




复制代码



文件下载


除非特别注明,本文『带怒而眠[中文字幕].To.Sleep.with.Anger.1990.1080p.BluRay.x265.10bit.DTS-bt9527.com 8.71GB』来源于互联网机器人自动抓取,非本站原创。 浮游电影网不对本文拥有版权,如有侵犯,请联系邮箱:fuyouu#yandex.com[#换成@]投诉。我们会在15个工作日内删除。 但烦请转载时请标明出处:“本文转载于『浮游电影网』,原文地址:https://www.fuyouu.com/18101.html

评论吧骚年!

发表你的见解   

昵称*

E-mail*(建议输入,以便收到博主回复的提示邮件)

验证码*

您可以使用eMule或eMule Mod(Windows)、aMule(Win、Linux、Mac)等软件下载eD2k链接。。
eMule收藏集(.emulecollection)文件是您选中的所有链接的列表文件。eMule可以直接下载它们。
按住SHIFT键选择可以选中多个选择框。
可用文件名和大小选择器来选择文件。
文件名选择器帮您根据文件名称或后缀来选择文件。不分大小写。
符号使用:
和:空格( )、+
不包含:-
或:|
转义:一对英文引号("");
匹配开头:^
匹配结尾:$
例如:
选中所有名称中包含有“eMule”或“0.49c”字眼,但不包含有“exe”字眼的:emule|0.49c -exe
选中所有名称的开头是“eMule”,结尾是“0.49c”的:^emule 0.49c$
选中所有名称中带有“eMule 0.49c”的(必须是“eMule 0.49c”,中间没有别的字符,不能是“eMule fake 0.49c”),需要转义:"emule 0.49c"
大小选择器帮您根据文件大小选择文件。