当前位置: 首页 >> 国产电影 >> 大唐玄奘[国语配音/中文字幕].Xuan.Zang.2016.1080p.BluRay.x265.10bit.DTS-bt9527.cc 7.92GB >> 正文

大唐玄奘[国语配音/中文字幕].Xuan.Zang.2016.1080p.BluRay.x265.10bit.DTS-bt9527.cc 7.92GB

2021年11月14日 22:02:46     电影发布:来源于网络     电影分类:国产电影     评论(0)    

大唐玄奘[国语配音/中文字幕].Xuan.Zang.2016.1080p.BluRay.x265.10bit.DTS bt9527.cc 7.92GB 历史 国产电影  第1张

◎译 名 大唐玄奘 / Xuan Zang

◎年 代 2016

◎产 地 中国大陆

◎类 别 历史

◎语 言 汉语普通话

◎上映日期 2016-04-29(中国大陆)

◎IMDb链接 https://www.imdb.com/title/tt5684550/

◎豆瓣评分 5.3/10 (24138人评价)

◎豆瓣链接 https://movie.douban.com/subject/26389697/

◎片 长 120分钟

◎导 演 霍建起 Jianqi Huo (id:1006351)

◎编 剧 邹静之 Jingzhi Zou (id:1276029)

◎演 员 黄晓明 Xiaoming Huang (id:1041404)

徐峥 Zheng Xu (id:1274297)

蒲巴甲 Purba Rgyal (id:1313045)

罗晋 Jin Luo (id:1276171)

汤镇业 Ken Tong (id:1028943)

锦荣 Vivian Dawson (id:1319584)

谭凯 Kai Tan (id:1275687)

姜超 Chao Jiang (id:1274652)

赵亮 Liang Zhao (id:1314024)

车晓 Xiao Che (id:1276038)

楼佳悦 Artemis (id:1357207)

赵文瑄 Winston Chao (id:1018759)

普里特维·祖奇 Prithvi Zutshi (id:1462763)

郝鹏飞 Pengfei Hao (id:1404364)

(id:1425771)

阿里·法扎勒 Ali Fazal (id:1342409)

刘蔚森 Weisen Liu (id:1357808)

桑贾伊·古巴萨尼 Sanjay Gurbaxani (id:1462764)

王家卫 Kar Wai Wong (id:1041024)

杜薇 Wei Du (id:1376948)

王晓锋 Xiaofeng Wang (id:1379292)

王菲 Faye Wong (id:1004858)

孙明 Ming Sun (id:1305119)

谷雨 Gu Yu (id:1383829)

曹伟杰 Weijie Cao (id:1328031)

武明 Ming Wu (id:1379290)

王家卫 Kar Wai Wong (id:1041024)

晁军 Jun Chao (id:1332952)

杨康成 kincent (id:1417009)

张博瑞 Bruce (id:1444325)

周禹彤 Yutong Zhou (id:1359287)

桑驯华 Xunhua Sang (id:1369844)

◎标 签 历史 / 宗教 / 中国 / 2016 / 史实改编 / 宗教哲思 / 佛教 / 大陆

◎简 介

影片讲述历史上的唐朝高僧玄奘历时17年,不畏艰难险阻,前往天竺取经的传奇故事。大唐贞观盛世,年轻的玄奘法师(黄晓明 饰)为求佛法真谛冒死偷渡出境,一路上遭遇千难万阻,天灾人祸,却也深得民间疾苦。官兵围堵、徒弟背叛、埋身沙海、断水绝粮,玄奘法师一心求法,最终抵达印度,在印度弘扬善念静心修佛,等到从无遮大会辩论成功回国之时,已经是年逾五十的老人了。

◎获奖情况 (共11项)

第19届上海国际电影节 (2016)

电影频道传媒大奖 媒体关注影片

第31届中国电影金鸡奖 (2017)

最佳摄影(提名)

└──孙明 (id:1305119)

最佳美术(提名)

└──武明 (id:1379290)

最佳音乐(提名)

└──王晓锋 (id:1379292)

最佳录音(提名)

└──晁军 (id:1332952)

第17届中国电影华表奖 (2018)

优秀故事片奖

优秀电影音乐奖

优秀摄影 (提名)

└──孙明 (id:1305119)

第13届中国长春电影节 (2016)

金鹿奖 最佳华语故事片

└──霍建起 (id:1006351)

金鹿奖 最佳男主角

└──黄晓明 (id:1041404)

金鹿奖 最佳摄影

└──孙明 (id:1305119)

  1. ##### MediaInfo ######

  2. General

  3. Unique ID : 65294219695423978098469692495646600409 (0x311F359412F8C5329F0EB7784736ACD9)

  4. Complete name : [email protected]

  5. Format : Matroska

  6. Format version : Version 4

  7. File size : 7.92 GiB

  8. Duration : 1 h 59 min

  9. Overall bit rate : 9 462 kb/s

  10. Movie name : Xuan Zang 2016

  11. Encoded date : UTC 2021-10-28 14:24:18

  12. Writing application : mkvmerge v62.0.0 ('Apollo') 64-bit

  13. Writing library : libebml v1.4.2 + libmatroska v1.6.4

  14. Cover : Yes

  15. Attachments : cover.jpg


  16. Video

  17. ID : 1

  18. Format : HEVC

  19. Format/Info : High Efficiency Video Coding

  20. Format profile : Main [email protected]@Main

  21. Codec ID : V_MPEGH/ISO/HEVC

  22. Duration : 1 h 59 min

  23. Bit rate : 7 921 kb/s

  24. Width : 1 920 pixels

  25. Height : 716 pixels

  26. Display aspect ratio : 2.682

  27. Frame rate mode : Constant

  28. Frame rate : 24.000 FPS

  29. Color space : YUV

  30. Chroma subsampling : 4:2:0

  31. Bit depth : 10 bits

  32. Bits/(Pixel*Frame) : 0.240

  33. Stream size : 6.63 GiB (84%)

  34. Writing library : x265 3.5+2-g2b25c9ba0+45:[Windows][GCC 10.2.0][64 bit] Yuuki 10bit+8bit+12bit

  35. Encoding settings : rc=crf / crf=16.0000 / qcomp=0.70 / qpstep=4 / stats-write=0 / stats-read=0 / no-lossless / no-cu-lossless / aq-mode=3 / aq-strength=0.90 / cbqpoffs=0 / crqpoffs=0 / ipratio=1.40 / pbratio=1.30 / psy-rd=2.00 / psy-rdoq=0.00 / deblock=0:0 / ref=6 / limit-refs=1 / no-limit-modes / bframes=8 / b-adapt=2 / bframe-bias=0 / b-pyramid / b-intra / weightp / weightb / min-keyint=24 / max-keyint=240 / rc-lookahead=24 / gop-lookahead=0 / NTMzNTQ=uuDQuD2mJt9fsCf / scenecut=40 / hist-scenecut=0 / radl=0 / max-cu-size=64 / min-cu-size=8 / me=3 / subme=7 / merange=48 / rdoq-level=0 / rd=4 / rdpenalty=0 / dynamic-rd=0.00 / no-rd-refine / ----- / cutree / sao / no-rect / no-amp / no-open-gop / wpp / no-pmode / no-pme / no-psnr / no-ssim / nr-intra=0 / nr-inter=0 / no-constrained-intra / no-strong-intra-smoothing / max-tu-size=32 / tu-inter-depth=1 / tu-intra-depth=1 / limit-tu=0 / qg-size=32 / qpmax=69 / qpmin=0 / ----- / cpuid=533541049583 / frame-threads=5 / numa-pools=+ / log-level=2 / input-csp=1 / input-res=1920x716 / interlace=0 / level-idc=0 / high-tier=1 / uhd-bd=0 / no-allow-non-conformance / no-repeat-headers / aud / no-hrd / info / hash=0 / no-temporal-layers / lookahead-slices=0 / no-splice / no-intra-refresh / no-ssim-rd / signhide / no-tskip / max-merge=3 / temporal-mvp / no-frame-dup / no-hme / no-analyze-src-pics / no-sao-non-deblock / selective-sao=4 / early-skip / rskip / no-fast-intra / no-tskip-fast / no-splitrd-skip / zone-count=0 / no-strict-cbr / no-rc-grain / no-const-vbv / sar=0 / overscan=0 / videoformat=5 / range=0 / colorprim=2 / transfer=2 / colormatrix=2 / chromaloc=0 / display-window=0 / cll=0,0 / min-luma=0 / max-luma=1023 / log2-max-poc-lsb=8 / vui-timing-info / vui-hrd-info / slices=1 / no-opt-qp-pps / no-opt-ref-list-length-pps / no-multi-pass-opt-rps / scenecut-bias=0.05 / hist-threshold=0.03 / no-opt-cu-delta-qp / no-aq-motion / no-hdr10 / no-hdr10-opt / no-dhdr10-opt / no-idr-recovery-sei / analysis-reuse-level=0 / analysis-save-reuse-level=0 / analysis-load-reuse-level=0 / scale-factor=0 / refine-intra=0 / refine-inter=0 / refine-mv=1 / refine-ctu-distortion=0 / no-limit-sao / ctu-info=0 / no-lowpass-dct / refine-analysis-type=0 / copy-pic=1 / max-ausize-factor=1.0 / no-dynamic-refine / no-single-sei / no-hevc-aq / no-svt / no-field / qp-adaptation-range=1.00 / scenecut-aware-qp=0conformance-window-offsets / right=0 / bottom=0 / NTMzNTQ= / decoder-max-rate=0 / no-vbv-live-multi-pass

  36. Language : English

  37. Default : Yes

  38. Forced : No


  39. Audio

  40. ID : 2

  41. ID in the original source medium : 4352 (0x1100)

  42. Format : DTS

  43. Format/Info : Digital Theater Systems

  44. Codec ID : A_DTS

  45. Duration : 1 h 59 min

  46. Bit rate mode : Constant

  47. Bit rate : 1 509 kb/s

  48. Channel(s) : 6 channels

  49. Channel layout : C L R Ls Rs LFE

  50. Sampling rate : 48.0 kHz

  51. Frame rate : 93.750 FPS (512 SPF)

  52. Bit depth : 16 bits

  53. Compression mode : Lossy

  54. Stream size : 1.26 GiB (16%)

  55. Title : Mandarin

  56. Language : Chinese

  57. Default : Yes

  58. Forced : No

  59. Original source medium : Blu-ray


  60. Text #1

  61. ID : 3

  62. ID in the original source medium : 4608 (0x1200)

  63. Format : PGS

  64. Muxing mode : zlib

  65. Codec ID : S_HDMV/PGS

  66. Codec ID/Info : Picture based subtitle format used on BDs/HD-DVDs

  67. Duration : 1 h 46 min

  68. Bit rate : 20.0 kb/s

  69. Count of elements : 1694

  70. Stream size : 15.3 MiB (0%)

  71. Title : chs

  72. Language : Chinese

  73. Default : Yes

  74. Forced : No

  75. Original source medium : Blu-ray


  76. Text #2

  77. ID : 4

  78. ID in the original source medium : 4609 (0x1201)

  79. Format : PGS

  80. Muxing mode : zlib

  81. Codec ID : S_HDMV/PGS

  82. Codec ID/Info : Picture based subtitle format used on BDs/HD-DVDs

  83. Duration : 1 h 46 min

  84. Bit rate : 20.6 kb/s

  85. Count of elements : 1694

  86. Stream size : 15.7 MiB (0%)

  87. Title : cht

  88. Language : Chinese

  89. Default : No

  90. Forced : No

  91. Original source medium : Blu-ray


  92. Text #3

  93. ID : 5

  94. ID in the original source medium : 4610 (0x1202)

  95. Format : PGS

  96. Muxing mode : zlib

  97. Codec ID : S_HDMV/PGS

  98. Codec ID/Info : Picture based subtitle format used on BDs/HD-DVDs

  99. Duration : 1 h 46 min

  100. Bit rate : 24.0 kb/s

  101. Count of elements : 1696

  102. Stream size : 18.3 MiB (0%)

  103. Language : English

  104. Default : Yes

  105. Forced : No

  106. Original source medium : Blu-ray


  107. Menu

  108. 00:00:00.000 : en:第 01 章

  109. 00:08:04.833 : en:第 02 章

  110. 00:15:27.208 : en:第 03 章

  111. 00:23:49.708 : en:第 04 章

  112. 00:32:56.916 : en:第 05 章

  113. 00:40:40.916 : en:第 06 章

  114. 00:56:05.166 : en:第 07 章

  115. 01:05:30.291 : en:第 08 章

  116. 01:20:09.166 : en:第 09 章

  117. 01:31:05.041 : en:第 10 章

  118. 01:45:01.208 : en:第 11 章

  119. 01:52:53.208 : en:第 12 章


文件下载


除非特别注明,本文『大唐玄奘[国语配音/中文字幕].Xuan.Zang.2016.1080p.BluRay.x265.10bit.DTS-bt9527.cc 7.92GB』来源于互联网机器人自动抓取,非本站原创。 浮游电影网不对本文拥有版权,如有侵犯,请联系邮箱:fuyouu#yandex.com[#换成@]投诉。我们会在15个工作日内删除。 但烦请转载时请标明出处:“本文转载于『浮游电影网』,原文地址:https://www.fuyouu.com/18098.html

评论吧骚年!

发表你的见解   

昵称*

E-mail*(建议输入,以便收到博主回复的提示邮件)

验证码*

您可以使用eMule或eMule Mod(Windows)、aMule(Win、Linux、Mac)等软件下载eD2k链接。。
eMule收藏集(.emulecollection)文件是您选中的所有链接的列表文件。eMule可以直接下载它们。
按住SHIFT键选择可以选中多个选择框。
可用文件名和大小选择器来选择文件。
文件名选择器帮您根据文件名称或后缀来选择文件。不分大小写。
符号使用:
和:空格( )、+
不包含:-
或:|
转义:一对英文引号("");
匹配开头:^
匹配结尾:$
例如:
选中所有名称中包含有“eMule”或“0.49c”字眼,但不包含有“exe”字眼的:emule|0.49c -exe
选中所有名称的开头是“eMule”,结尾是“0.49c”的:^emule 0.49c$
选中所有名称中带有“eMule 0.49c”的(必须是“eMule 0.49c”,中间没有别的字符,不能是“eMule fake 0.49c”),需要转义:"emule 0.49c"
大小选择器帮您根据文件大小选择文件。