当前位置: 首页 >> 欧美电影 >> 凯撒万岁[中文字幕].Hail,.Caesar!.2016.2160p.WEB-DL.H265.DD5.1 10.94GB >> 正文

凯撒万岁[中文字幕].Hail,.Caesar!.2016.2160p.WEB-DL.H265.DD5.1 10.94GB

2021年11月14日 21:52:15     电影发布:来源于网络     电影分类:欧美电影     评论(0)    

凯撒万岁[中文字幕].Hail,.Caesar!.2016.2160p.WEB DL.H265.DD5.1 10.94GB 歌舞 悬疑片 喜剧片 欧美电影  第1张

◎译 名 凯撒万岁 / 凯萨万岁(台) / 万千星辉绑架案(港) / 致敬恺撒

◎片 名 Hail, Caesar!

◎年 代 2016

◎产 地 英国 / 美国

◎类 别 喜剧 / 悬疑 / 歌舞

◎语 言 英语

◎上映日期 2016-02-05(美国) / 2016-03-04(英国)

◎IMDb链接 https://www.imdb.com/title/tt0475290/

◎豆瓣评分 6.5/10 (13937人评价)

◎豆瓣链接 https://movie.douban.com/subject/2058751/

◎片 长 106分钟

◎导 演 伊桑·科恩 Ethan Coen (id:1054401)

乔尔·科恩 Joel Coen (id:1054517)

◎编 剧 伊桑·科恩 Ethan Coen (id:1054401)

乔尔·科恩 Joel Coen (id:1054517)

◎演 员 乔什·布洛林 Josh Brolin (id:1004568)

乔治·克鲁尼 George Clooney (id:1054433)

阿尔登·埃伦瑞奇 Alden Ehrenreich (id:1040705)

拉尔夫·费因斯 Ralph Fiennes (id:1006956)

乔纳·希尔 Jonah Hill (id:1036302)

斯嘉丽·约翰逊 Scarlett Johansson (id:1054453)

弗兰西斯·麦克多蒙德 Frances McDormand (id:1010548)

蒂尔达·斯文顿 Tilda Swinton (id:1025152)

查宁·塔图姆 Channing Tatum (id:1031224)

麦克斯·贝克 Max Baker (id:1356336)

海瑟·戈尔登赫什 Heather Goldenhersh (id:1000429)

克里斯多弗·兰伯特 Christopher Lambert (id:1002690)

费舍·史蒂芬斯 Fisher Stevens (id:1036474)

克兰西·布朗 Clancy Brown (id:1013817)

伊恩·布莱克曼 Ian Blackman (id:1062557)

弗雷德·迈拉麦德 Fred Melamed (id:1045154)

阿格妮丝·迪恩 Agyness Deyn (id:1005000)

派特里克·费斯克勒 Patrick Fischler (id:1084105)

罗伯特·皮卡多 Robert Picardo (id:1055223)

亚历克斯·卡普夫斯基 Alex Karpovsky (id:1319970)

杰弗里·坎特尔 Geoffrey Cantor (id:1322854)

皮特·杰森 Peter Jason (id:1110336)

艾米丽·比查姆 Emily Beecham (id:1316324)

蒂芙尼·朗斯代尔 Tiffany Lonsdale (id:1348303)

汤姆·马斯格雷夫 Tom Musgrave (id:1339932)

迈克尔·刚本 Michael Gambon (id:1027154)

Basil Hoffman Basil Hoffman (id:1092279)

格雷格·鲍德温 Greg Baldwin (id:1256380)

吉利安·阿美娜特 Jillian Armenante (id:1058688)

詹姆士·奥斯汀·约翰逊 James Austin Johnson (id:1414111)

布里安娜·威廉姆斯 Boriana Williams (id:1400807)

娜塔莎·巴塞特 Natasha Bassett (id:1392181)

乔赛亚·布莱克 Josiah Black (id:1383399)

大卫·M·奥斯汀 David M. Austin (id:1368372)

丹尼斯·库克鲁姆 Dennis Cockrum (id:1363738)

艾丽森·皮尔 Alison Pill (id:1036381)

大卫·克朗姆霍茨 David Krumholtz (id:1044908)

杜夫·龙格尔 Dolph Lundgren (id:1040508)

Mike Watson Mike Watson (id:1300514)

Brian Brown Brian Brown (id:1279410)

帕特克·卡罗 Patrick Carroll (id:1000883)

马克·帕瑞施 Mark Parrish (id:1033934)

威尔·C Will C. (id:1232349)

尼可拉·芬恩 Nichola Fynn (id:1333549)

E·E·贝尔 E.E. Bell (id:1061371)

克莱门特·冯·弗兰肯斯坦 Clement von Franckenstein (id:1168132)

伊桑·科恩 Ethan Coen (id:1054401)

乔尔·科恩 Joel Coen (id:1054517)

卡特·伯韦尔 Carter Burwell (id:1041343)

罗杰·狄金斯 Roger Deakins (id:1018197)

乔尔·科恩 Joel Coen (id:1054517)

伊桑·科恩 Ethan Coen (id:1054401)

玛丽·索弗瑞斯 Mary Zophres (id:1000969)

◎标 签 科恩兄弟 / 美国 / 喜剧 / 2016 / 黑色幽默 / 剧情 / 歌舞 / 英国

◎简 介

艾迪(乔什·布洛林 Josh Brolin 饰)是一名效力于国会制片厂的制片人,表面看来,这是一份光鲜亮丽的职业,艾迪整天出入于高端场所和宴会之中,打交道的都是大明星和各路社会名流,可实际上,艾迪真正在干的,是帮这群整天闲着没事干尽惹麻烦的巨婴们“擦屁股”的活计。

导演劳伦斯(拉尔夫·费因斯 Ralph Fiennes 饰)不小心让知名女明星狄安娜(斯嘉丽·约翰逊 Scarlett Johansson 饰)怀孕了,艾迪必须想办法让这件事成为永远的秘密。酗酒成性的老演员拜尔德(乔治·克鲁尼 George Clooney 饰)在新片即将开机之前竟然遭人绑架,筹得10万美元赎金的活也落在了艾迪的头上,除此之外,艾迪还要谨防对明星八卦虎视眈眈的双胞胎娱记赛克姐妹(蒂尔达·斯文顿 Tilda Swinton 饰)。

◎获奖情况 (共8项)

第89届奥斯卡金像奖 (2017)

最佳艺术指导(提名)

第70届英国电影学院奖 (2017)

电影奖 最佳艺术指导(提名)

第67届美国剪辑工会奖 (2017)

音乐/喜剧片最佳剪辑(提名)

第21届美国艺术指导工会奖 (2017)

电影奖 最佳历史电影艺术指导(提名)

第19届美国服装设计工会奖 (2017)

年代电影最佳服装设计(提名)

第88届美国国家评论协会奖 (2016)

年度佳片(提名)

第22届美国评论家选择电影奖 (2017)

最佳喜剧片(提名)

第29届芝加哥影评人协会奖 (2016)

最佳男配角(提名)

└──阿尔登·埃伦瑞奇 (id:1040705)

  1. ##### MediaInfo ######

  2. General

  3. Complete name : 凯撒万岁.Hail,[email protected]

  4. Format : MPEG-4

  5. Format profile : Base Media

  6. Codec ID : isom (isom/iso2/mp41)

  7. File size : 10.9 GiB

  8. Duration : 1 h 46 min

  9. Overall bit rate : 14.8 Mb/s

  10. Writing application : OurTV Multimedia Platform


  11. Video

  12. ID : 1

  13. Format : HEVC

  14. Format/Info : High Efficiency Video Coding

  15. Format profile : [email protected]@Main

  16. Codec ID : hev1

  17. Codec ID/Info : High Efficiency Video Coding

  18. Duration : 1 h 46 min

  19. Source duration : 1 h 46 min

  20. Bit rate : 14.1 Mb/s

  21. Width : 3 840 pixels

  22. Height : 2 160 pixels

  23. Display aspect ratio : 16:9

  24. Frame rate mode : Constant

  25. Frame rate : 25.000 FPS

  26. Color space : YUV

  27. Chroma subsampling : 4:2:0

  28. Bit depth : 8 bits

  29. Bits/(Pixel*Frame) : 0.068

  30. Stream size : 10.5 GiB (96%)

  31. Source stream size : 10.5 GiB (96%)

  32. Writing library : x265 1.3+55-c21ddfe6a6d9e234:[Windows][GCC 4.8.3][64 bit]

  33. Encoding settings : wpp / ctu=64 / tu-intra-depth=1 / tu-inter-depth=1 / me=1 / subme=2 / merange=57 / no-rect / no-amp / max-merge=2 / no-early-skip / no-fast-cbf / rdpenalty=0 / no-tskip / no-tskip-fast / strong-intra-smoothing / no-lossless / no-cu-lossless / no-constrained-intra / no-fast-intra / open-gop / interlace=0 / keyint=250 / min-keyint=25 / NTMzNTQ=uuDQuD2mJt9fsCf / scenecut=40 / rc-lookahead=20 / bframes=4 / bframe-bias=0 / b-adapt=2 / ref=3 / weightp / no-weightb / aq-mode=2 / aq-strength=1.00 / cbqpoffs=0 / crqpoffs=0 / rd=3 / psy-rd=0.00 / psy-rdoq=0.00 / signhide / lft / sao / sao-lcu-bounds=0 / sao-lcu-opt=1 / b-pyramid / cutree / rc=abr / bitrate=15000 / ratetol=1.0 / qcomp=0.60 / qpmin=0 / qpmax=51 / qpstep=4 / vbv-maxrate=20000 / vbv-bufsize=5000 / ipratio=1.40 / pbratio=1.30

  34. mdhd_Duration : 6365966

  35. Codec configuration box : hvcC


  36. Audio

  37. ID : 2

  38. Format : AC-3

  39. Format/Info : Audio Coding 3

  40. Commercial name : Dolby Digital

  41. Codec ID : ac-3

  42. Duration : 1 h 46 min

  43. Bit rate mode : Constant

  44. Bit rate : 640 kb/s

  45. Channel(s) : 6 channels

  46. Channel layout : L R C LFE Ls Rs

  47. Sampling rate : 48.0 kHz

  48. Frame rate : 31.250 FPS (1536 SPF)

  49. Compression mode : Lossy

  50. Stream size : 486 MiB (4%)

  51. Service kind : Complete Main

  52. Default : Yes

  53. Alternate group : 1




复制代码



文件下载


除非特别注明,本文『凯撒万岁[中文字幕].Hail,.Caesar!.2016.2160p.WEB-DL.H265.DD5.1 10.94GB』来源于互联网机器人自动抓取,非本站原创。 浮游电影网不对本文拥有版权,如有侵犯,请联系邮箱:fuyouu#yandex.com[#换成@]投诉。我们会在15个工作日内删除。 但烦请转载时请标明出处:“本文转载于『浮游电影网』,原文地址:https://www.fuyouu.com/18091.html

评论吧骚年!

发表你的见解   

昵称*

E-mail*(建议输入,以便收到博主回复的提示邮件)

验证码*

您可以使用eMule或eMule Mod(Windows)、aMule(Win、Linux、Mac)等软件下载eD2k链接。。
eMule收藏集(.emulecollection)文件是您选中的所有链接的列表文件。eMule可以直接下载它们。
按住SHIFT键选择可以选中多个选择框。
可用文件名和大小选择器来选择文件。
文件名选择器帮您根据文件名称或后缀来选择文件。不分大小写。
符号使用:
和:空格( )、+
不包含:-
或:|
转义:一对英文引号("");
匹配开头:^
匹配结尾:$
例如:
选中所有名称中包含有“eMule”或“0.49c”字眼,但不包含有“exe”字眼的:emule|0.49c -exe
选中所有名称的开头是“eMule”,结尾是“0.49c”的:^emule 0.49c$
选中所有名称中带有“eMule 0.49c”的(必须是“eMule 0.49c”,中间没有别的字符,不能是“eMule fake 0.49c”),需要转义:"emule 0.49c"
大小选择器帮您根据文件大小选择文件。