当前位置: 首页 >> 国产电影 >> 图兰朵:魔咒缘起[国语配音/中文字幕].The.Curse.of.Turandot.2021.1080p.WEB-DL.H264.AAC 1.55GB >> 正文

图兰朵:魔咒缘起[国语配音/中文字幕].The.Curse.of.Turandot.2021.1080p.WEB-DL.H264.AAC 1.55GB

2021年11月13日 15:18:11     电影发布:来源于网络     电影分类:国产电影     评论(0)    

图兰朵:魔咒缘起[国语配音/中文字幕].The.Curse.of.Turandot.2021.1080p.WEB DL.H264.AAC 1.55GB 奇幻片 爱情片 国产电影  第1张

◎译 名 图兰朵:魔咒缘起 / 三色镯:破谜重生 / 三色镯·破迷重生 / 图兰朵 / The Curse of Turandot / Turandot

◎年 代 2021

◎产 地 中国大陆

◎类 别 爱情 / 奇幻

◎语 言 汉语普通话

◎上映日期 2021-10-15(中国大陆)

◎IMDb链接 https://www.imdb.com/title/tt6703486/

◎豆瓣评分 3.3/10 (12042人评价)

◎豆瓣链接 https://movie.douban.com/subject/26662331/

◎片 长 111分钟

◎导 演 郑晓龙 Xiaolong Zheng (id:1303060)

◎编 剧 王小平 Xiaoping Wang (id:1351220)

◎演 员 关晓彤 Xiaotong Guan (id:1276032)

迪伦·斯普罗斯 Dylan Sprouse (id:1022621)

姜文 Wen Jiang (id:1021999)

胡军 Jun Hu (id:1032540)

苏菲·玛索 Sophie Marceau (id:1040543)

文森特·佩雷斯 Vincent Perez (id:1019043)

林思意 Sissy Lin (id:1352967)

王嘉 Jevon Wang (id:1367682)

邹兆龙 Collin Chou (id:1022821)

乌兰托雅·朵 Audrey Duo (id:1409336)

托马斯·弗兰克 Thomas Frank (id:1421908)

郑晓龙 Xiaolong Zheng (id:1303060)

曹平 Ping Cao (id:1447831)

敦勇 Yong Dun (id:1449087)

西蒙·弗兰格伦 Simon Franglen (id:1284089)

◎标 签 魔幻 / 奇幻 / 灾难 / 2021 / 爱情 / 中国大陆 / 战争 / 剧情

◎简 介

大汗国派兵出征,军队意外带回小国王后(苏菲·玛索 饰)祖传的三色镯,一个侵蚀帝国上下的魔咒由此开启。

骄傲的帝王(姜文 饰)为解救被魔咒附身的女儿图兰朵(关晓彤 饰),遍寻天下能人破局。自小流浪到汗国的孤儿卡拉夫(迪伦·斯普罗斯 饰)与公主相遇并互相倾慕。因同情图兰朵的痛苦境遇,卡拉夫不惜以性命为代价解救心上人,然而却不知那魔咒与自己神秘的身世密切相关。此时的帝国王室因为魔咒掀起一场腥风血雨,嗜杀的将军(胡军 饰)欲凭借三色镯的力量谋权,君臣倾轧一触即发。每个人都面临着艰难选择,几方势力因为魔咒逐渐卷进了旋涡中心。

  1. ##### MediaInfo ######

  2. General

  3. Complete name : 图兰朵:魔咒缘起[email protected]OM.mp4

  4. Format : MPEG-4

  5. Format profile : Base Media

  6. Codec ID : isom (isom/iso2/avc1/mp41)

  7. File size : 1.54 GiB

  8. Duration : 1 h 50 min

  9. Overall bit rate mode : Variable

  10. Overall bit rate : 2 002 kb/s

  11. Writing application : Lavf58.17.103


  12. Video

  13. ID : 1

  14. Format : AVC

  15. Format/Info : Advanced Video Codec

  16. Format profile : [email protected]

  17. Format settings : CABAC / 4 Ref Frames

  18. Format settings, CABAC : Yes

  19. Format settings, Reference frames : 4 frames

  20. Codec ID : avc1

  21. Codec ID/Info : Advanced Video Coding

  22. Duration : 1 h 50 min

  23. Bit rate : 1 901 kb/s

  24. Width : 1 920 pixels

  25. Height : 804 pixels

  26. Display aspect ratio : 2.40:1

  27. Frame rate mode : Variable

  28. Frame rate : 24.000 FPS

  29. Minimum frame rate : 23.994 FPS

  30. Maximum frame rate : 24.006 FPS

  31. Color space : YUV

  32. Chroma subsampling : 4:2:0

  33. Bit depth : 8 bits

  34. Scan type : Progressive

  35. Bits/(Pixel*Frame) : 0.051

  36. Stream size : 1.47 GiB (95%)

  37. Writing library : ptw-1.0.136 rcm-adapt vs-93 vwk

  38. Color range : Limited

  39. Codec configuration box : avcC


  40. Audio

  41. ID : 2

  42. Format : AAC LC

  43. Format/Info : Advanced Audio Codec Low Complexity

  44. Codec ID : mp4a-40-2

  45. Duration : 1 h 50 min

  46. Bit rate mode : Variable

  47. Bit rate : 93.4 kb/s

  48. Maximum bit rate : 95.6 kb/s

  49. Channel(s) : 2 channels

  50. Channel layout : L R

  51. Sampling rate : 48.0 kHz

  52. Frame rate : 46.875 FPS (1024 SPF)

  53. Compression mode : Lossy

  54. Stream size : 73.8 MiB (5%)

  55. Default : Yes

  56. Alternate group : 1




复制代码



文件下载


除非特别注明,本文『图兰朵:魔咒缘起[国语配音/中文字幕].The.Curse.of.Turandot.2021.1080p.WEB-DL.H264.AAC 1.55GB』来源于互联网机器人自动抓取,非本站原创。 浮游电影网不对本文拥有版权,如有侵犯,请联系邮箱:fuyouu#yandex.com[#换成@]投诉。我们会在15个工作日内删除。 但烦请转载时请标明出处:“本文转载于『浮游电影网』,原文地址:https://www.fuyouu.com/17891.html

评论吧骚年!

发表你的见解   

昵称*

E-mail*(建议输入,以便收到博主回复的提示邮件)

验证码*

您可以使用eMule或eMule Mod(Windows)、aMule(Win、Linux、Mac)等软件下载eD2k链接。。
eMule收藏集(.emulecollection)文件是您选中的所有链接的列表文件。eMule可以直接下载它们。
按住SHIFT键选择可以选中多个选择框。
可用文件名和大小选择器来选择文件。
文件名选择器帮您根据文件名称或后缀来选择文件。不分大小写。
符号使用:
和:空格( )、+
不包含:-
或:|
转义:一对英文引号("");
匹配开头:^
匹配结尾:$
例如:
选中所有名称中包含有“eMule”或“0.49c”字眼,但不包含有“exe”字眼的:emule|0.49c -exe
选中所有名称的开头是“eMule”,结尾是“0.49c”的:^emule 0.49c$
选中所有名称中带有“eMule 0.49c”的(必须是“eMule 0.49c”,中间没有别的字符,不能是“eMule fake 0.49c”),需要转义:"emule 0.49c"
大小选择器帮您根据文件大小选择文件。