当前位置: 首页 >> 欧美电影 >> 红色通缉令[中文字幕].Red.Notice.2021.1080p.NF.WEB-DL.DDP5.1.Atmos.x264 15.80GB >> 正文

红色通缉令[中文字幕].Red.Notice.2021.1080p.NF.WEB-DL.DDP5.1.Atmos.x264 15.80GB

2021年11月13日 15:16:27     电影发布:来源于网络     电影分类:欧美电影     评论(0)    

红色通缉令[中文字幕].Red.Notice.2021.1080p.NF.WEB DL.DDP5.1.Atmos.x264 15.80GB 犯罪片 惊悚片 喜剧片 动作片 欧美电影  第1张

◎译 名 红色通缉令

◎片 名 Red Notice

◎年 代 2021

◎产 地 美国

◎类 别 喜剧 / 动作 / 惊悚 / 犯罪

◎语 言 英语

◎上映日期 2021-11-12(美国)

◎IMDb链接 https://www.imdb.com/title/tt7991608/

◎豆瓣链接 https://movie.douban.com/subject/30143331/

◎片 长 115分钟

◎导 演 罗森·马歇尔·瑟伯 Rawson Marshall Thurber (id:1005149)

◎编 剧 罗森·马歇尔·瑟伯 Rawson Marshall Thurber (id:1005149)

◎演 员 瑞安·雷诺兹 Ryan Reynolds (id:1053623)

道恩·强森 Dwayne Johnson (id:1044707)

盖尔·加朵 Gal Gadot (id:1044996)

里图·阿亚 Ritu Arya (id:1396614)

克里斯·迪亚曼托普洛斯 Chris Diamantopoulos (id:1090227)

伊万·姆巴科普 Ivan Mbakop (id:1445883)

温琴佐·阿马托 Vincenzo Amato (id:1277139)

帕斯卡尔·佩塔尔迪 Rafael Petardi (id:1397351)

塞思·迈克尔斯 Seth Michaels (id:1366034)

罗伯特·廷斯利 Robert Tinsley (id:1402482)

汤姆·蔡 Tom Choi (id:1326607)

马丁·威廉·哈里斯 Martin William Harris (id:1262286)

盖·纳尔杜利 Guy Nardulli (id:1214094)

杰伊·古铁雷斯 Jay Gutierrez (id:1268126)

Ray Siegle Ray Siegle (id:1297576)

詹姆斯·威廉·巴拉德 James William Ballard (id:1434106)

埃尔文·费利西达 Erwin Felicilda (id:1434119)

约瑟夫·波多尔斯基 Yosef Podolski (id:1371471)

维多利亚·佩吉·沃特金斯 Victoria Paige Watkins (id:1434123)

塞巴斯蒂安·拉格 Sebastien Large (id:1452541)

罗森·马歇尔·瑟伯 Rawson Marshall Thurber (id:1005149)

达妮·加西亚 Dany Garcia (id:1180644)

海拉姆·加西亚 Hiram Garcia (id:1410407)

道恩·强森 Dwayne Johnson (id:1044707)

斯蒂夫·贾布隆斯基 Steve Jablonsky (id:1027591)

马库斯·福德勒 Markus F?rderer (id:1443248)

瑞秋·特纳 Rachel Tenner (id:1299064)

安迪·尼克尔森 Andy Nicholson (id:1293160)

詹森·诺克斯·约翰斯顿 Jason Knox-Johnston (id:1288785)

玛丽·E·沃格特 Mary E. Vogt (id:1300156)

◎标 签 Netflix / 动作 / 喜剧 / 瑞恩·雷诺兹 / 美国 / 巨石强森 / 犯罪 / 特工

◎简 介

国际刑警组织发布名为「红色通缉令」的全球警戒,出手追捕全球头号通缉犯。一桩胆大妄为的劫案,却导致美国联邦调查局一名顶尖犯罪侧写员(道恩·强森 Dwayne Johnson 饰),杠上两位互相较劲的罪犯(盖尔·加朵 Gal Gadot、瑞安·雷诺兹 Ryan Reynolds 饰),这下事情会怎么发展,可就难说了。

  1. ##### MediaInfo ######

  2. General

  3. Unique ID : 308436357342472808270947330735311304870 (0xE80AAE80E66B3153DBE21DBC178238A6)

  4. Complete name : [email protected]OM.mkv

  5. Format : Matroska

  6. Format version : Version 4

  7. File size : 15.8 GiB

  8. Duration : 1 h 57 min

  9. Overall bit rate mode : Variable

  10. Overall bit rate : 19.2 Mb/s

  11. Encoded date : UTC 2021-11-12 09:31:37

  12. Writing application : mkvmerge v62.0.0 ('Apollo') 64-bit

  13. Writing library : libebml v1.4.2 + libmatroska v1.6.4


  14. Video

  15. ID : 1

  16. Format : AVC

  17. Format/Info : Advanced Video Codec

  18. Format profile : [email protected]

  19. Format settings : CABAC / 4 Ref Frames

  20. Format settings, CABAC : Yes

  21. Format settings, Reference frames : 4 frames

  22. Codec ID : V_MPEG4/ISO/AVC

  23. Duration : 1 h 57 min

  24. Bit rate mode : Variable

  25. Bit rate : 2 259 kb/s

  26. Maximum bit rate : 20.0 Mb/s

  27. Width : 1 920 pixels

  28. Height : 1 080 pixels

  29. Display aspect ratio : 16:9

  30. Frame rate mode : Constant

  31. Frame rate : 24.000 FPS

  32. Color space : YUV

  33. Chroma subsampling : 4:2:0

  34. Bit depth : 8 bits

  35. Scan type : Progressive

  36. Bits/(Pixel*Frame) : 0.045

  37. Stream size : 1.86 GiB (12%)

  38. Writing library : x264 core 148 r2724 dbe0335

  39. Encoding settings : cabac=1 / ref=4 / deblock=1:0:0 / analyse=0x3:0x111 / me=umh / subme=10 / psy=1 / psy_rd=1.00:0.00 / mixed_ref=1 / me_range=120 / chroma_me=1 / trellis=2 / 8x8dct=1 / cqm=0 / deadzone=21,11 / fast_pskip=1 / chroma_qp_offset=-2 / threads=8 / lookahead_threads=2 / sliced_threads=0 / nr=0 / decimate=1 / interlaced=0 / NTMzNTQ= / bluray_compat=0 / stitchable=1 / constrained_intra=0 / bframes=16 / b_pyramid=2 / b_adapt=2 / b_bias=0 / direct=3 / weightb=1 / open_gop=0 / weightp=2 / keyint=240 / keyint_min=121 / scenecut=0 / intra_refresh=0 / rc_lookahead=240 / rc=crf / mbtree=1 / crf=21.0 / qcomp=0.50 / qpmin=6 / qpmax=51 / qpstep=4 / vbv_maxrate=20000 / vbv_bufsize=25000 / crf_max=0.0 / nal_hrd=vbr / filler=0 / NTMzNTQ=LmsMAP37EqsCpk / ip_ratio=1.40 / aq=1:0.80

  40. Default : Yes

  41. Forced : No


  42. Audio #1

  43. ID : 2

  44. Format : E-AC-3 JOC

  45. Format/Info : Enhanced AC-3 with Joint Object Coding

  46. Commercial name : Dolby Digital Plus with Dolby Atmos

  47. Codec ID : A_EAC3

  48. Duration : 1 h 57 min

  49. Bit rate mode : Constant

  50. Bit rate : 768 kb/s

  51. Channel(s) : 6 channels

  52. Channel layout : L R C LFE Ls Rs

  53. Sampling rate : 48.0 kHz

  54. Frame rate : 31.250 FPS (1536 SPF)

  55. Compression mode : Lossy

  56. Stream size : 648 MiB (4%)

  57. Title : English

  58. Language : English

  59. Service kind : Complete Main

  60. Default : Yes

  61. Forced : No

  62. Complexity index : 16

  63. Number of dynamic objects : 15

  64. Bed channel count : 1 channel

  65. Bed channel configuration : LFE


  66. Audio #2

  67. ID : 3

  68. Format : E-AC-3 JOC

  69. Format/Info : Enhanced AC-3 with Joint Object Coding

  70. Commercial name : Dolby Digital Plus with Dolby Atmos

  71. Codec ID : A_EAC3

  72. Duration : 1 h 57 min

  73. Bit rate mode : Constant

  74. Bit rate : 768 kb/s

  75. Channel(s) : 6 channels

  76. Channel layout : L R C LFE Ls Rs

  77. Sampling rate : 48.0 kHz

  78. Frame rate : 31.250 FPS (1536 SPF)

  79. Compression mode : Lossy

  80. Stream size : 648 MiB (4%)

  81. Title : Arabic Syria

  82. Language : Arabic

  83. Service kind : Complete Main

  84. Default : No

  85. Forced : No

  86. Complexity index : 16

  87. Number of dynamic objects : 15

  88. Bed channel count : 1 channel

  89. Bed channel configuration : LFE


  90. Audio #3

  91. ID : 4

  92. Format : E-AC-3 JOC

  93. Format/Info : Enhanced AC-3 with Joint Object Coding

  94. Commercial name : Dolby Digital Plus with Dolby Atmos

  95. Codec ID : A_EAC3

  96. Duration : 1 h 57 min

  97. Bit rate mode : Constant

  98. Bit rate : 768 kb/s

  99. Channel(s) : 6 channels

  100. Channel layout : L R C LFE Ls Rs

  101. Sampling rate : 48.0 kHz

  102. Frame rate : 31.250 FPS (1536 SPF)

  103. Compression mode : Lossy

  104. Stream size : 648 MiB (4%)

  105. Title : Czech

  106. Language : Czech

  107. Service kind : Complete Main

  108. Default : No

  109. Forced : No

  110. Complexity index : 16

  111. Number of dynamic objects : 15

  112. Bed channel count : 1 channel

  113. Bed channel configuration : LFE


  114. Audio #4

  115. ID : 5

  116. Format : E-AC-3 JOC

  117. Format/Info : Enhanced AC-3 with Joint Object Coding

  118. Commercial name : Dolby Digital Plus with Dolby Atmos

  119. Codec ID : A_EAC3

  120. Duration : 1 h 57 min

  121. Bit rate mode : Constant

  122. Bit rate : 768 kb/s

  123. Channel(s) : 6 channels

  124. Channel layout : L R C LFE Ls Rs

  125. Sampling rate : 48.0 kHz

  126. Frame rate : 31.250 FPS (1536 SPF)

  127. Compression mode : Lossy

  128. Stream size : 648 MiB (4%)

  129. Title : French

  130. Language : French

  131. Service kind : Complete Main

  132. Default : No

  133. Forced : No

  134. Complexity index : 16

  135. Number of dynamic objects : 15

  136. Bed channel count : 1 channel

  137. Bed channel configuration : LFE


  138. Audio #5

  139. ID : 6

  140. Format : E-AC-3 JOC

  141. Format/Info : Enhanced AC-3 with Joint Object Coding

  142. Commercial name : Dolby Digital Plus with Dolby Atmos

  143. Codec ID : A_EAC3

  144. Duration : 1 h 57 min

  145. Bit rate mode : Constant

  146. Bit rate : 768 kb/s

  147. Channel(s) : 6 channels

  148. Channel layout : L R C LFE Ls Rs

  149. Sampling rate : 48.0 kHz

  150. Frame rate : 31.250 FPS (1536 SPF)

  151. Compression mode : Lossy

  152. Stream size : 648 MiB (4%)

  153. Title : German

  154. Language : German

  155. Service kind : Complete Main

  156. Default : No

  157. Forced : No

  158. Complexity index : 16

  159. Number of dynamic objects : 15

  160. Bed channel count : 1 channel

  161. Bed channel configuration : LFE


  162. Audio #6

  163. ID : 7

  164. Format : E-AC-3 JOC

  165. Format/Info : Enhanced AC-3 with Joint Object Coding

  166. Commercial name : Dolby Digital Plus with Dolby Atmos

  167. Codec ID : A_EAC3

  168. Duration : 1 h 57 min

  169. Bit rate mode : Constant

  170. Bit rate : 768 kb/s

  171. Channel(s) : 6 channels

  172. Channel layout : L R C LFE Ls Rs

  173. Sampling rate : 48.0 kHz

  174. Frame rate : 31.250 FPS (1536 SPF)

  175. Compression mode : Lossy

  176. Stream size : 648 MiB (4%)

  177. Title : Hindi

  178. Language : Hindi

  179. Service kind : Complete Main

  180. Default : No

  181. Forced : No

  182. Complexity index : 16

  183. Number of dynamic objects : 15

  184. Bed channel count : 1 channel

  185. Bed channel configuration : LFE


  186. Audio #7

  187. ID : 8

  188. Format : E-AC-3 JOC

  189. Format/Info : Enhanced AC-3 with Joint Object Coding

  190. Commercial name : Dolby Digital Plus with Dolby Atmos

  191. Codec ID : A_EAC3

  192. Duration : 1 h 57 min

  193. Bit rate mode : Constant

  194. Bit rate : 768 kb/s

  195. Channel(s) : 6 channels

  196. Channel layout : L R C LFE Ls Rs

  197. Sampling rate : 48.0 kHz

  198. Frame rate : 31.250 FPS (1536 SPF)

  199. Compression mode : Lossy

  200. Stream size : 648 MiB (4%)

  201. Title : Hungarian

  202. Language : Hungarian

  203. Service kind : Complete Main

  204. Default : No

  205. Forced : No

  206. Complexity index : 16

  207. Number of dynamic objects : 15

  208. Bed channel count : 1 channel

  209. Bed channel configuration : LFE


  210. Audio #8

  211. ID : 9

  212. Format : E-AC-3 JOC

  213. Format/Info : Enhanced AC-3 with Joint Object Coding

  214. Commercial name : Dolby Digital Plus with Dolby Atmos

  215. Codec ID : A_EAC3

  216. Duration : 1 h 57 min

  217. Bit rate mode : Constant

  218. Bit rate : 768 kb/s

  219. Channel(s) : 6 channels

  220. Channel layout : L R C LFE Ls Rs

  221. Sampling rate : 48.0 kHz

  222. Frame rate : 31.250 FPS (1536 SPF)

  223. Compression mode : Lossy

  224. Stream size : 648 MiB (4%)

  225. Title : Italian

  226. Language : Italian

  227. Service kind : Complete Main

  228. Default : No

  229. Forced : No

  230. Complexity index : 16

  231. Number of dynamic objects : 15

  232. Bed channel count : 1 channel

  233. Bed channel configuration : LFE


  234. Audio #9

  235. ID : 10

  236. Format : E-AC-3 JOC

  237. Format/Info : Enhanced AC-3 with Joint Object Coding

  238. Commercial name : Dolby Digital Plus with Dolby Atmos

  239. Codec ID : A_EAC3

  240. Duration : 1 h 57 min

  241. Bit rate mode : Constant

  242. Bit rate : 768 kb/s

  243. Channel(s) : 6 channels

  244. Channel layout : L R C LFE Ls Rs

  245. Sampling rate : 48.0 kHz

  246. Frame rate : 31.250 FPS (1536 SPF)

  247. Compression mode : Lossy

  248. Stream size : 648 MiB (4%)

  249. Title : Japanese

  250. Language : Japanese

  251. Service kind : Complete Main

  252. Default : No

  253. Forced : No

  254. Complexity index : 16

  255. Number of dynamic objects : 15

  256. Bed channel count : 1 channel

  257. Bed channel configuration : LFE


  258. Audio #10

  259. ID : 11

  260. Format : E-AC-3 JOC

  261. Format/Info : Enhanced AC-3 with Joint Object Coding

  262. Commercial name : Dolby Digital Plus with Dolby Atmos

  263. Codec ID : A_EAC3

  264. Duration : 1 h 57 min

  265. Bit rate mode : Constant

  266. Bit rate : 768 kb/s

  267. Channel(s) : 6 channels

  268. Channel layout : L R C LFE Ls Rs

  269. Sampling rate : 48.0 kHz

  270. Frame rate : 31.250 FPS (1536 SPF)

  271. Compression mode : Lossy

  272. Stream size : 648 MiB (4%)

  273. Title : Korean

  274. Language : Korean

  275. Service kind : Complete Main

  276. Default : No

  277. Forced : No

  278. Complexity index : 16

  279. Number of dynamic objects : 15

  280. Bed channel count : 1 channel

  281. Bed channel configuration : LFE


  282. Audio #11

  283. ID : 12

  284. Format : E-AC-3 JOC

  285. Format/Info : Enhanced AC-3 with Joint Object Coding

  286. Commercial name : Dolby Digital Plus with Dolby Atmos

  287. Codec ID : A_EAC3

  288. Duration : 1 h 57 min

  289. Bit rate mode : Constant

  290. Bit rate : 768 kb/s

  291. Channel(s) : 6 channels

  292. Channel layout : L R C LFE Ls Rs

  293. Sampling rate : 48.0 kHz

  294. Frame rate : 31.250 FPS (1536 SPF)

  295. Compression mode : Lossy

  296. Stream size : 648 MiB (4%)

  297. Title : Polish

  298. Language : Polish

  299. Service kind : Complete Main

  300. Default : No

  301. Forced : No

  302. Complexity index : 16

  303. Number of dynamic objects : 15

  304. Bed channel count : 1 channel

  305. Bed channel configuration : LFE


  306. Audio #12

  307. ID : 13

  308. Format : E-AC-3 JOC

  309. Format/Info : Enhanced AC-3 with Joint Object Coding

  310. Commercial name : Dolby Digital Plus with Dolby Atmos

  311. Codec ID : A_EAC3

  312. Duration : 1 h 57 min

  313. Bit rate mode : Constant

  314. Bit rate : 768 kb/s

  315. Channel(s) : 6 channels

  316. Channel layout : L R C LFE Ls Rs

  317. Sampling rate : 48.0 kHz

  318. Frame rate : 31.250 FPS (1536 SPF)

  319. Compression mode : Lossy

  320. Stream size : 648 MiB (4%)

  321. Title : Brazilian Portuguese

  322. Language : Portuguese

  323. Service kind : Complete Main

  324. Default : No

  325. Forced : No

  326. Complexity index : 16

  327. Number of dynamic objects : 15

  328. Bed channel count : 1 channel

  329. Bed channel configuration : LFE


  330. Audio #13

  331. ID : 14

  332. Format : E-AC-3 JOC

  333. Format/Info : Enhanced AC-3 with Joint Object Coding

  334. Commercial name : Dolby Digital Plus with Dolby Atmos

  335. Codec ID : A_EAC3

  336. Duration : 1 h 57 min

  337. Bit rate mode : Constant

  338. Bit rate : 768 kb/s

  339. Channel(s) : 6 channels

  340. Channel layout : L R C LFE Ls Rs

  341. Sampling rate : 48.0 kHz

  342. Frame rate : 31.250 FPS (1536 SPF)

  343. Compression mode : Lossy

  344. Stream size : 648 MiB (4%)

  345. Title : Russian

  346. Language : Russian

  347. Service kind : Complete Main

  348. Default : No

  349. Forced : No

  350. Complexity index : 16

  351. Number of dynamic objects : 15

  352. Bed channel count : 1 channel

  353. Bed channel configuration : LFE


  354. Audio #14

  355. ID : 15

  356. Format : E-AC-3 JOC

  357. Format/Info : Enhanced AC-3 with Joint Object Coding

  358. Commercial name : Dolby Digital Plus with Dolby Atmos

  359. Codec ID : A_EAC3

  360. Duration : 1 h 57 min

  361. Bit rate mode : Constant

  362. Bit rate : 768 kb/s

  363. Channel(s) : 6 channels

  364. Channel layout : L R C LFE Ls Rs

  365. Sampling rate : 48.0 kHz

  366. Frame rate : 31.250 FPS (1536 SPF)

  367. Compression mode : Lossy

  368. Stream size : 648 MiB (4%)

  369. Title : Spanish

  370. Language : Spanish

  371. Service kind : Complete Main

  372. Default : No

  373. Forced : No

  374. Complexity index : 16

  375. Number of dynamic objects : 15

  376. Bed channel count : 1 channel

  377. Bed channel configuration : LFE


  378. Audio #15

  379. ID : 16

  380. Format : E-AC-3 JOC

  381. Format/Info : Enhanced AC-3 with Joint Object Coding

  382. Commercial name : Dolby Digital Plus with Dolby Atmos

  383. Codec ID : A_EAC3

  384. Duration : 1 h 57 min

  385. Bit rate mode : Constant

  386. Bit rate : 768 kb/s

  387. Channel(s) : 6 channels

  388. Channel layout : L R C LFE Ls Rs

  389. Sampling rate : 48.0 kHz

  390. Frame rate : 31.250 FPS (1536 SPF)

  391. Compression mode : Lossy

  392. Stream size : 648 MiB (4%)

  393. Title : European Spanish

  394. Language : Spanish

  395. Service kind : Complete Main

  396. Default : No

  397. Forced : No

  398. Complexity index : 16

  399. Number of dynamic objects : 15

  400. Bed channel count : 1 channel

  401. Bed channel configuration : LFE


  402. Audio #16

  403. ID : 17

  404. Format : E-AC-3 JOC

  405. Format/Info : Enhanced AC-3 with Joint Object Coding

  406. Commercial name : Dolby Digital Plus with Dolby Atmos

  407. Codec ID : A_EAC3

  408. Duration : 1 h 57 min

  409. Bit rate mode : Constant

  410. Bit rate : 768 kb/s

  411. Channel(s) : 6 channels

  412. Channel layout : L R C LFE Ls Rs

  413. Sampling rate : 48.0 kHz

  414. Frame rate : 31.250 FPS (1536 SPF)

  415. Compression mode : Lossy

  416. Stream size : 648 MiB (4%)

  417. Title : Swedish

  418. Language : Swedish

  419. Service kind : Complete Main

  420. Default : No

  421. Forced : No

  422. Complexity index : 16

  423. Number of dynamic objects : 15

  424. Bed channel count : 1 channel

  425. Bed channel configuration : LFE


  426. Audio #17

  427. ID : 18

  428. Format : E-AC-3 JOC

  429. Format/Info : Enhanced AC-3 with Joint Object Coding

  430. Commercial name : Dolby Digital Plus with Dolby Atmos

  431. Codec ID : A_EAC3

  432. Duration : 1 h 57 min

  433. Bit rate mode : Constant

  434. Bit rate : 768 kb/s

  435. Channel(s) : 6 channels

  436. Channel layout : L R C LFE Ls Rs

  437. Sampling rate : 48.0 kHz

  438. Frame rate : 31.250 FPS (1536 SPF)

  439. Compression mode : Lossy

  440. Stream size : 648 MiB (4%)

  441. Title : Tamil

  442. Language : Tamil

  443. Service kind : Complete Main

  444. Default : No

  445. Forced : No

  446. Complexity index : 16

  447. Number of dynamic objects : 15

  448. Bed channel count : 1 channel

  449. Bed channel configuration : LFE


  450. Audio #18

  451. ID : 19

  452. Format : E-AC-3 JOC

  453. Format/Info : Enhanced AC-3 with Joint Object Coding

  454. Commercial name : Dolby Digital Plus with Dolby Atmos

  455. Codec ID : A_EAC3

  456. Duration : 1 h 57 min

  457. Bit rate mode : Constant

  458. Bit rate : 768 kb/s

  459. Channel(s) : 6 channels

  460. Channel layout : L R C LFE Ls Rs

  461. Sampling rate : 48.0 kHz

  462. Frame rate : 31.250 FPS (1536 SPF)

  463. Compression mode : Lossy

  464. Stream size : 648 MiB (4%)

  465. Title : Telugu

  466. Language : Telugu

  467. Service kind : Complete Main

  468. Default : No

  469. Forced : No

  470. Complexity index : 16

  471. Number of dynamic objects : 15

  472. Bed channel count : 1 channel

  473. Bed channel configuration : LFE


  474. Audio #19

  475. ID : 20

  476. Format : E-AC-3 JOC

  477. Format/Info : Enhanced AC-3 with Joint Object Coding

  478. Commercial name : Dolby Digital Plus with Dolby Atmos

  479. Codec ID : A_EAC3

  480. Duration : 1 h 57 min

  481. Bit rate mode : Constant

  482. Bit rate : 768 kb/s

  483. Channel(s) : 6 channels

  484. Channel layout : L R C LFE Ls Rs

  485. Sampling rate : 48.0 kHz

  486. Frame rate : 31.250 FPS (1536 SPF)

  487. Compression mode : Lossy

  488. Stream size : 648 MiB (4%)

  489. Title : Thai

  490. Language : Thai

  491. Service kind : Complete Main

  492. Default : No

  493. Forced : No

  494. Complexity index : 16

  495. Number of dynamic objects : 15

  496. Bed channel count : 1 channel

  497. Bed channel configuration : LFE


  498. Audio #20

  499. ID : 21

  500. Format : E-AC-3 JOC

  501. Format/Info : Enhanced AC-3 with Joint Object Coding

  502. Commercial name : Dolby Digital Plus with Dolby Atmos

  503. Codec ID : A_EAC3

  504. Duration : 1 h 57 min

  505. Bit rate mode : Constant

  506. Bit rate : 768 kb/s

  507. Channel(s) : 6 channels

  508. Channel layout : L R C LFE Ls Rs

  509. Sampling rate : 48.0 kHz

  510. Frame rate : 31.250 FPS (1536 SPF)

  511. Compression mode : Lossy

  512. Stream size : 648 MiB (4%)

  513. Title : Turkish

  514. Language : Turkish

  515. Service kind : Complete Main

  516. Default : No

  517. Forced : No

  518. Complexity index : 16

  519. Number of dynamic objects : 15

  520. Bed channel count : 1 channel

  521. Bed channel configuration : LFE


  522. Audio #21

  523. ID : 22

  524. Format : E-AC-3 JOC

  525. Format/Info : Enhanced AC-3 with Joint Object Coding

  526. Commercial name : Dolby Digital Plus with Dolby Atmos

  527. Codec ID : A_EAC3

  528. Duration : 1 h 57 min

  529. Bit rate mode : Constant

  530. Bit rate : 768 kb/s

  531. Channel(s) : 6 channels

  532. Channel layout : L R C LFE Ls Rs

  533. Sampling rate : 48.0 kHz

  534. Frame rate : 31.250 FPS (1536 SPF)

  535. Compression mode : Lossy

  536. Stream size : 648 MiB (4%)

  537. Title : Ukrainian

  538. Language : Ukrainian

  539. Service kind : Complete Main

  540. Default : No

  541. Forced : No

  542. Complexity index : 16

  543. Number of dynamic objects : 15

  544. Bed channel count : 1 channel

  545. Bed channel configuration : LFE


  546. Audio #22

  547. ID : 23

  548. Format : E-AC-3 JOC

  549. Format/Info : Enhanced AC-3 with Joint Object Coding

  550. Commercial name : Dolby Digital Plus with Dolby Atmos

  551. Codec ID : A_EAC3

  552. Duration : 1 h 57 min

  553. Bit rate mode : Constant

  554. Bit rate : 768 kb/s

  555. Channel(s) : 6 channels

  556. Channel layout : L R C LFE Ls Rs

  557. Sampling rate : 48.0 kHz

  558. Frame rate : 31.250 FPS (1536 SPF)

  559. Compression mode : Lossy

  560. Stream size : 648 MiB (4%)

  561. Title : Vietnamese

  562. Language : Vietnamese

  563. Service kind : Complete Main

  564. Default : No

  565. Forced : No

  566. Complexity index : 16

  567. Number of dynamic objects : 15

  568. Bed channel count : 1 channel

  569. Bed channel configuration : LFE


  570. Text #1

  571. ID : 24

  572. Format : UTF-8

  573. Codec ID : S_TEXT/UTF8

  574. Codec ID/Info : UTF-8 Plain Text

  575. Duration : 1 h 54 min

  576. Bit rate : 70 b/s

  577. Count of elements : 1718

  578. Stream size : 59.3 KiB (0%)

  579. Title : English

  580. Language : English

  581. Default : Yes

  582. Forced : No


  583. Text #2

  584. ID : 25

  585. Format : UTF-8

  586. Codec ID : S_TEXT/UTF8

  587. Codec ID/Info : UTF-8 Plain Text

  588. Duration : 1 h 38 min

  589. Bit rate : 1 b/s

  590. Count of elements : 33

  591. Stream size : 816 Bytes (0%)

  592. Title : English (Forced)

  593. Language : English

  594. Default : No

  595. Forced : Yes


  596. Text #3

  597. ID : 26

  598. Format : UTF-8

  599. Codec ID : S_TEXT/UTF8

  600. Codec ID/Info : UTF-8 Plain Text

  601. Duration : 1 h 55 min

  602. Bit rate : 95 b/s

  603. Count of elements : 1456

  604. Stream size : 80.8 KiB (0%)

  605. Title : Arabic

  606. Language : Arabic

  607. Default : No

  608. Forced : No


  609. Text #4

  610. ID : 27

  611. Format : UTF-8

  612. Codec ID : S_TEXT/UTF8

  613. Codec ID/Info : UTF-8 Plain Text

  614. Duration : 1 h 55 min

  615. Bit rate : 55 b/s

  616. Count of elements : 1424

  617. Stream size : 46.4 KiB (0%)

  618. Title : Chinese Simplified

  619. Language : Chinese

  620. Default : No

  621. Forced : No


  622. Text #5

  623. ID : 28

  624. Format : UTF-8

  625. Codec ID : S_TEXT/UTF8

  626. Codec ID/Info : UTF-8 Plain Text

  627. Duration : 1 h 55 min

  628. Bit rate : 49 b/s

  629. Count of elements : 1487

  630. Stream size : 41.5 KiB (0%)

  631. Title : Chinese Traditional

  632. Language : Chinese

  633. Default : No

  634. Forced : No


  635. Text #6

  636. ID : 29

  637. Format : UTF-8

  638. Codec ID : S_TEXT/UTF8

  639. Codec ID/Info : UTF-8 Plain Text

  640. Duration : 1 h 55 min

  641. Bit rate : 49 b/s

  642. Count of elements : 1429

  643. Stream size : 41.3 KiB (0%)

  644. Title : Croatian

  645. Language : Croatian

  646. Default : No

  647. Forced : No


  648. Text #7

  649. ID : 30

  650. Format : UTF-8

  651. Codec ID : S_TEXT/UTF8

  652. Codec ID/Info : UTF-8 Plain Text

  653. Duration : 1 h 55 min

  654. Bit rate : 49 b/s

  655. Count of elements : 1370

  656. Stream size : 42.0 KiB (0%)

  657. Title : Czech

  658. Language : Czech

  659. Default : No

  660. Forced : No


  661. Text #8

  662. ID : 31

  663. Format : UTF-8

  664. Codec ID : S_TEXT/UTF8

  665. Codec ID/Info : UTF-8 Plain Text

  666. Duration : 1 h 55 min

  667. Bit rate : 49 b/s

  668. Count of elements : 1282

  669. Stream size : 42.0 KiB (0%)

  670. Title : Danish

  671. Language : Danish

  672. Default : No

  673. Forced : No


  674. Text #9

  675. ID : 32

  676. Format : UTF-8

  677. Codec ID : S_TEXT/UTF8

  678. Codec ID/Info : UTF-8 Plain Text

  679. Duration : 1 h 55 min

  680. Bit rate : 47 b/s

  681. Count of elements : 1167

  682. Stream size : 39.9 KiB (0%)

  683. Title : Dutch

  684. Language : Dutch

  685. Default : No

  686. Forced : No


  687. Text #10

  688. ID : 33

  689. Format : UTF-8

  690. Codec ID : S_TEXT/UTF8

  691. Codec ID/Info : UTF-8 Plain Text

  692. Duration : 1 h 55 min

  693. Bit rate : 49 b/s

  694. Count of elements : 1198

  695. Stream size : 42.0 KiB (0%)

  696. Title : Finnish

  697. Language : Finnish

  698. Default : No

  699. Forced : No


  700. Text #11

  701. ID : 34

  702. Format : UTF-8

  703. Codec ID : S_TEXT/UTF8

  704. Codec ID/Info : UTF-8 Plain Text

  705. Duration : 1 h 55 min

  706. Bit rate : 54 b/s

  707. Count of elements : 1426

  708. Stream size : 45.8 KiB (0%)

  709. Title : French

  710. Language : French

  711. Default : No

  712. Forced : No


  713. Text #12

  714. ID : 35

  715. Format : UTF-8

  716. Codec ID : S_TEXT/UTF8

  717. Codec ID/Info : UTF-8 Plain Text

  718. Duration : 1 h 55 min

  719. Bit rate : 52 b/s

  720. Count of elements : 1369

  721. Stream size : 43.9 KiB (0%)

  722. Title : German

  723. Language : German

  724. Default : No

  725. Forced : No


  726. Text #13

  727. ID : 36

  728. Format : UTF-8

  729. Codec ID : S_TEXT/UTF8

  730. Codec ID/Info : UTF-8 Plain Text

  731. Duration : 1 h 55 min

  732. Bit rate : 88 b/s

  733. Count of elements : 1430

  734. Stream size : 74.3 KiB (0%)

  735. Title : Greek

  736. Language : Greek

  737. Default : No

  738. Forced : No


  739. Text #14

  740. ID : 37

  741. Format : UTF-8

  742. Codec ID : S_TEXT/UTF8

  743. Codec ID/Info : UTF-8 Plain Text

  744. Duration : 1 h 55 min

  745. Bit rate : 79 b/s

  746. Count of elements : 1408

  747. Stream size : 67.1 KiB (0%)

  748. Title : Hebrew

  749. Language : Hebrew

  750. Default : No

  751. Forced : No


  752. Text #15

  753. ID : 38

  754. Format : UTF-8

  755. Codec ID : S_TEXT/UTF8

  756. Codec ID/Info : UTF-8 Plain Text

  757. Duration : 1 h 55 min

  758. Bit rate : 51 b/s

  759. Count of elements : 1369

  760. Stream size : 43.8 KiB (0%)

  761. Title : Hungarian

  762. Language : Hungarian

  763. Default : No

  764. Forced : No


  765. Text #16

  766. ID : 39

  767. Format : UTF-8

  768. Codec ID : S_TEXT/UTF8

  769. Codec ID/Info : UTF-8 Plain Text

  770. Duration : 1 h 55 min

  771. Bit rate : 52 b/s

  772. Count of elements : 1405

  773. Stream size : 43.9 KiB (0%)

  774. Title : Indonesian

  775. Language : Indonesian

  776. Default : No

  777. Forced : No


  778. Text #17

  779. ID : 40

  780. Format : UTF-8

  781. Codec ID : S_TEXT/UTF8

  782. Codec ID/Info : UTF-8 Plain Text

  783. Duration : 1 h 55 min

  784. Bit rate : 51 b/s

  785. Count of elements : 1324

  786. Stream size : 43.4 KiB (0%)

  787. Title : Italian

  788. Language : Italian

  789. Default : No

  790. Forced : No


  791. Text #18

  792. ID : 41

  793. Format : UTF-8

  794. Codec ID : S_TEXT/UTF8

  795. Codec ID/Info : UTF-8 Plain Text

  796. Duration : 1 h 55 min

  797. Bit rate : 45 b/s

  798. Count of elements : 1330

  799. Stream size : 38.2 KiB (0%)

  800. Title : Japanese

  801. Language : Japanese

  802. Default : No

  803. Forced : No


  804. Text #19

  805. ID : 42

  806. Format : UTF-8

  807. Codec ID : S_TEXT/UTF8

  808. Codec ID/Info : UTF-8 Plain Text

  809. Duration : 1 h 55 min

  810. Bit rate : 60 b/s

  811. Count of elements : 1416

  812. Stream size : 50.8 KiB (0%)

  813. Title : Korean

  814. Language : Korean

  815. Default : No

  816. Forced : No


  817. Text #20

  818. ID : 43

  819. Format : UTF-8

  820. Codec ID : S_TEXT/UTF8

  821. Codec ID/Info : UTF-8 Plain Text

  822. Duration : 1 h 55 min

  823. Bit rate : 51 b/s

  824. Count of elements : 1378

  825. Stream size : 43.7 KiB (0%)

  826. Title : Malay

  827. Language : Malay

  828. Default : No

  829. Forced : No


  830. Text #21

  831. ID : 44

  832. Format : UTF-8

  833. Codec ID : S_TEXT/UTF8

  834. Codec ID/Info : UTF-8 Plain Text

  835. Duration : 1 h 55 min

  836. Bit rate : 50 b/s

  837. Count of elements : 1265

  838. Stream size : 42.7 KiB (0%)

  839. Title : Norwegian Bokmal

  840. Language : Norwegian Bokmal

  841. Default : No

  842. Forced : No


  843. Text #22

  844. ID : 45

  845. Format : UTF-8

  846. Codec ID : S_TEXT/UTF8

  847. Codec ID/Info : UTF-8 Plain Text

  848. Duration : 1 h 54 min

  849. Bit rate : 49 b/s

  850. Count of elements : 1407

  851. Stream size : 42.1 KiB (0%)

  852. Title : Polish

  853. Language : Polish

  854. Default : No

  855. Forced : No


  856. Text #23

  857. ID : 46

  858. Format : UTF-8

  859. Codec ID : S_TEXT/UTF8

  860. Codec ID/Info : UTF-8 Plain Text

  861. Duration : 1 h 55 min

  862. Bit rate : 55 b/s

  863. Count of elements : 1376

  864. Stream size : 47.1 KiB (0%)

  865. Title : Portuguese

  866. Language : Portuguese

  867. Default : No

  868. Forced : No


  869. Text #24

  870. ID : 47

  871. Format : UTF-8

  872. Codec ID : S_TEXT/UTF8

  873. Codec ID/Info : UTF-8 Plain Text

  874. Duration : 1 h 55 min

  875. Bit rate : 52 b/s

  876. Count of elements : 1342

  877. Stream size : 43.9 KiB (0%)

  878. Title : Brazilian Portuguese

  879. Language : Portuguese

  880. Default : No

  881. Forced : No


  882. Text #25

  883. ID : 48

  884. Format : UTF-8

  885. Codec ID : S_TEXT/UTF8

  886. Codec ID/Info : UTF-8 Plain Text

  887. Duration : 1 h 55 min

  888. Bit rate : 57 b/s

  889. Count of elements : 1319

  890. Stream size : 48.7 KiB (0%)

  891. Title : Romanian

  892. Language : Romanian

  893. Default : No

  894. Forced : No


  895. Text #26

  896. ID : 49

  897. Format : UTF-8

  898. Codec ID : S_TEXT/UTF8

  899. Codec ID/Info : UTF-8 Plain Text

  900. Duration : 1 h 55 min

  901. Bit rate : 81 b/s

  902. Count of elements : 1385

  903. Stream size : 68.7 KiB (0%)

  904. Title : Russian

  905. Language : Russian

  906. Default : No

  907. Forced : No


  908. Text #27

  909. ID : 50

  910. Format : UTF-8

  911. Codec ID : S_TEXT/UTF8

  912. Codec ID/Info : UTF-8 Plain Text

  913. Duration : 1 h 55 min

  914. Bit rate : 51 b/s

  915. Count of elements : 1422

  916. Stream size : 43.3 KiB (0%)

  917. Title : Spanish

  918. Language : Spanish

  919. Default : No

  920. Forced : No


  921. Text #28

  922. ID : 51

  923. Format : UTF-8

  924. Codec ID : S_TEXT/UTF8

  925. Codec ID/Info : UTF-8 Plain Text

  926. Duration : 1 h 55 min

  927. Bit rate : 49 b/s

  928. Count of elements : 1390

  929. Stream size : 41.9 KiB (0%)

  930. Title : European Spanish

  931. Language : Spanish

  932. Default : No

  933. Forced : No


  934. Text #29

  935. ID : 52

  936. Format : UTF-8

  937. Codec ID : S_TEXT/UTF8

  938. Codec ID/Info : UTF-8 Plain Text

  939. Duration : 1 h 55 min

  940. Bit rate : 52 b/s

  941. Count of elements : 1237

  942. Stream size : 44.5 KiB (0%)

  943. Title : Swedish

  944. Language : Swedish

  945. Default : No

  946. Forced : No


  947. Text #30

  948. ID : 53

  949. Format : UTF-8

  950. Codec ID : S_TEXT/UTF8

  951. Codec ID/Info : UTF-8 Plain Text

  952. Duration : 1 h 55 min

  953. Bit rate : 134 b/s

  954. Count of elements : 1415

  955. Stream size : 113 KiB (0%)

  956. Title : Thai

  957. Language : Thai

  958. Default : No

  959. Forced : No


  960. Text #31

  961. ID : 54

  962. Format : UTF-8

  963. Codec ID : S_TEXT/UTF8

  964. Codec ID/Info : UTF-8 Plain Text

  965. Duration : 1 h 55 min

  966. Bit rate : 53 b/s

  967. Count of elements : 1411

  968. Stream size : 45.3 KiB (0%)

  969. Title : Turkish

  970. Language : Turkish

  971. Default : No

  972. Forced : No


  973. Text #32

  974. ID : 55

  975. Format : UTF-8

  976. Codec ID : S_TEXT/UTF8

  977. Codec ID/Info : UTF-8 Plain Text

  978. Duration : 1 h 55 min

  979. Bit rate : 85 b/s

  980. Count of elements : 1410

  981. Stream size : 72.3 KiB (0%)

  982. Title : Ukrainian

  983. Language : Ukrainian

  984. Default : No

  985. Forced : No


  986. Text #33

  987. ID : 56

  988. Format : UTF-8

  989. Codec ID : S_TEXT/UTF8

  990. Codec ID/Info : UTF-8 Plain Text

  991. Duration : 1 h 55 min

  992. Bit rate : 75 b/s

  993. Count of elements : 1421

  994. Stream size : 63.4 KiB (0%)

  995. Title : Vietnamese

  996. Language : Vietnamese

  997. Default : No

  998. Forced : No




复制代码





文件下载



除非特别注明,本文『红色通缉令[中文字幕].Red.Notice.2021.1080p.NF.WEB-DL.DDP5.1.Atmos.x264 15.80GB』来源于互联网机器人自动抓取,非本站原创。 浮游电影网不对本文拥有版权,如有侵犯,请联系邮箱:fuyouu#yandex.com[#换成@]投诉。我们会在15个工作日内删除。 但烦请转载时请标明出处:“本文转载于『浮游电影网』,原文地址:https://www.fuyouu.com/17890.html

评论吧骚年!

发表你的见解   

昵称*

E-mail*(建议输入,以便收到博主回复的提示邮件)

验证码*

您可以使用eMule或eMule Mod(Windows)、aMule(Win、Linux、Mac)等软件下载eD2k链接。。
eMule收藏集(.emulecollection)文件是您选中的所有链接的列表文件。eMule可以直接下载它们。
按住SHIFT键选择可以选中多个选择框。
可用文件名和大小选择器来选择文件。
文件名选择器帮您根据文件名称或后缀来选择文件。不分大小写。
符号使用:
和:空格( )、+
不包含:-
或:|
转义:一对英文引号("");
匹配开头:^
匹配结尾:$
例如:
选中所有名称中包含有“eMule”或“0.49c”字眼,但不包含有“exe”字眼的:emule|0.49c -exe
选中所有名称的开头是“eMule”,结尾是“0.49c”的:^emule 0.49c$
选中所有名称中带有“eMule 0.49c”的(必须是“eMule 0.49c”,中间没有别的字符,不能是“eMule fake 0.49c”),需要转义:"emule 0.49c"
大小选择器帮您根据文件大小选择文件。