当前位置: 首页 >> 日韩电影 >> 致允熙[中文字幕].Moonlit.Winter.2019.1080p.WEB-DL.H264.AAC 5.97GB >> 正文

致允熙[中文字幕].Moonlit.Winter.2019.1080p.WEB-DL.H264.AAC 5.97GB

2021年11月13日 15:13:09     电影发布:来源于网络     电影分类:日韩电影     评论(0)    

致允熙[中文字幕].Moonlit.Winter.2019.1080p.WEB DL.H264.AAC 5.97GB 同性 剧情片 日韩电影  第1张

◎译 名 致允熙 / 满月 / Moonlit Winter / ?? / 小樽情书(港) / 密友禁地(台)

◎片 名 ????

◎年 代 2019

◎产 地 韩国

◎类 别 剧情 / 同性

◎语 言 韩语 / 日语

◎上映日期 2019-10-12(釜山电影节) / 2019-11-14(韩国)

◎IMDb链接 https://www.imdb.com/title/tt11311974/

◎豆瓣评分 8.3/10 (28110人评价)

◎豆瓣链接 https://movie.douban.com/subject/30488003/

◎片 长 105分钟

◎导 演 任大炯 LIM Dae-hyung (id:1403069)

◎编 剧 任大炯 LIM Dae-hyung (id:1403069)

◎演 员 金喜爱 Hee-ae Kim (id:1047700)

中村优子 Y?ko Nakamura (id:1015928)

金素慧 Kim So Hye (id:1380891)

成侑彬 Yoo-bin Sung (id:1384047)

木野花 Hana Kino (id:1015520)

泷内公美 Kumi Takiuchi (id:1367736)

金学善 Hak-seon Kim (id:1383376)

韩松熙 Song-ee Han (id:1429350)

尹泰熙 Tae-hee Yoon (id:1429351)

刘在明 Jae-myung Yoo (id:1376010)

◎标 签 同性 / 韩国 / 女性 / 文艺 / LGBT / 爱情 / 温情 / 情感

◎简 介

电影讲述收到初恋的信的女主人公“允熙”(金喜爱 饰)为寻找遗忘的记忆而离去的故事。金喜爱饰演本片的女主人公,寻找深埋心底的初恋的“允熙”,日本演员中村优子饰演允熙的老朋友,允熙的女儿由I.O.I出身的金素慧饰演,通过多部作品展示不俗演技的成侑彬饰演允熙女儿的男朋友。

◎获奖情况 (共13项)

第41届韩国电影青龙奖 (2020)

最佳影片(提名)

最佳导演

└──任大炯 (id:1403069)

最佳女主角(提名)

└──金喜爱 (id:1047700)

最佳新人女演员(提名)

└──金素慧 (id:1380891)

最佳剧本

最佳剪辑(提名)

最佳配乐(提名)

第56届百想艺术大赏 (2020)

电影类 最佳女主角(提名)

└──金喜爱 (id:1047700)

电影类 最佳新人女演员(提名)

└──金素慧 (id:1380891)

电影类 最佳编剧(提名)

└──任大炯 (id:1403069)

第56届韩国电影大钟奖 (2020)

最佳女主角(提名)

└──金喜爱 (id:1047700)

第7届豆瓣电影年度榜单 (2020)

评分最高的韩国电影(提名)

年度LGBT电影(提名)

  1. ##### MediaInfo ######

  2. General

  3. Unique ID : 54111153555351717019149415730482795437 (0x28B56DD9383AC64BD2D94CE79CD453AD)

  4. Complete name : [email protected]

  5. Format : Matroska

  6. Format version : Version 4

  7. File size : 5.97 GiB

  8. Duration : 1 h 45 min

  9. Overall bit rate : 8 130 kb/s

  10. Encoded date : UTC 2021-11-11 11:57:20

  11. Writing application : mkvmerge v56.1.0 ('My Friend') 64-bit

  12. Writing library : libebml v1.4.2 + libmatroska v1.6.4


  13. Video

  14. ID : 1

  15. Format : AVC

  16. Format/Info : Advanced Video Codec

  17. Format profile : [email protected]

  18. Format settings : CABAC / 2 Ref Frames

  19. Format settings, CABAC : Yes

  20. Format settings, Reference frames : 2 frames

  21. Format settings, GOP : M=1, N=30

  22. Codec ID : V_MPEG4/ISO/AVC

  23. Duration : 1 h 45 min

  24. Bit rate mode : Constant

  25. Bit rate : 8 000 kb/s

  26. Width : 1 920 pixels

  27. Height : 1 080 pixels

  28. Display aspect ratio : 16:9

  29. Frame rate mode : Constant

  30. Frame rate : 23.976 (24000/1001/53354) FPS

  31. Color space : YUV

  32. Chroma subsampling : 4:2:0

  33. Bit depth : 8 bits

  34. Scan type : Progressive

  35. Bits/(Pixel*Frame) : 0.161

  36. Stream size : 5.88 GiB (98%)

  37. Default : Yes

  38. Forced : No


  39. Audio

  40. ID : 2

  41. Format : AAC LC

  42. Format/Info : Advanced Audio Codec Low Complexity

  43. Codec ID : A_AAC-2

  44. Duration : 1 h 45 min

  45. Bit rate : 128 kb/s

  46. Channel(s) : 2 channels

  47. Channel layout : L R

  48. Sampling rate : 48.0 kHz

  49. Frame rate : 46.875 FPS (1024 SPF)

  50. Compression mode : Lossy

  51. Stream size : 96.3 MiB (2%)

  52. Language : Korean

  53. Default : Yes

  54. Forced : No


  55. Text #1

  56. ID : 3

  57. Format : UTF-8

  58. Codec ID : S_TEXT/UTF8

  59. Codec ID/Info : UTF-8 Plain Text

  60. Duration : 1 h 39 min

  61. Bit rate : 22 b/s

  62. Count of elements : 854

  63. Stream size : 16.3 KiB (0%)

  64. Title : Chinese Simplified

  65. Language : Chinese

  66. Default : Yes

  67. Forced : No


  68. Text #2

  69. ID : 4

  70. Format : UTF-8

  71. Codec ID : S_TEXT/UTF8

  72. Codec ID/Info : UTF-8 Plain Text

  73. Duration : 1 h 39 min

  74. Bit rate : 22 b/s

  75. Count of elements : 854

  76. Stream size : 16.3 KiB (0%)

  77. Title : Chinese Traditional

  78. Language : Chinese

  79. Default : No

  80. Forced : No




复制代码






文件下载


除非特别注明,本文『致允熙[中文字幕].Moonlit.Winter.2019.1080p.WEB-DL.H264.AAC 5.97GB』来源于互联网机器人自动抓取,非本站原创。 浮游电影网不对本文拥有版权,如有侵犯,请联系邮箱:fuyouu#yandex.com[#换成@]投诉。我们会在15个工作日内删除。 但烦请转载时请标明出处:“本文转载于『浮游电影网』,原文地址:https://www.fuyouu.com/17888.html

评论吧骚年!

发表你的见解   

昵称*

E-mail*(建议输入,以便收到博主回复的提示邮件)

验证码*

您可以使用eMule或eMule Mod(Windows)、aMule(Win、Linux、Mac)等软件下载eD2k链接。。
eMule收藏集(.emulecollection)文件是您选中的所有链接的列表文件。eMule可以直接下载它们。
按住SHIFT键选择可以选中多个选择框。
可用文件名和大小选择器来选择文件。
文件名选择器帮您根据文件名称或后缀来选择文件。不分大小写。
符号使用:
和:空格( )、+
不包含:-
或:|
转义:一对英文引号("");
匹配开头:^
匹配结尾:$
例如:
选中所有名称中包含有“eMule”或“0.49c”字眼,但不包含有“exe”字眼的:emule|0.49c -exe
选中所有名称的开头是“eMule”,结尾是“0.49c”的:^emule 0.49c$
选中所有名称中带有“eMule 0.49c”的(必须是“eMule 0.49c”,中间没有别的字符,不能是“eMule fake 0.49c”),需要转义:"emule 0.49c"
大小选择器帮您根据文件大小选择文件。