当前位置: 首页 >> 国产电影 >> 冲出战俘营[国语配音/中文字幕].Charging.Out.The.Prisoner.Camp.2021.2160p.WEB-DL.H265.AAC 1.30GB >> 正文

冲出战俘营[国语配音/中文字幕].Charging.Out.The.Prisoner.Camp.2021.2160p.WEB-DL.H265.AAC 1.30GB

2021年11月13日 15:11:50     电影发布:来源于网络     电影分类:国产电影     评论(0)    

冲出战俘营[国语配音/中文字幕].Charging.Out.The.Prisoner.Camp.2021.2160p.WEB DL.H265.AAC 1.30GB 战争片 动作片 国产电影  第1张

◎译 名 冲出战俘营 / 1944冲出战俘营

◎年 代 2021

◎产 地 中国大陆

◎类 别 动作 / 战争

◎语 言 汉语普通话

◎上映日期 2021-11-12

◎IMDb链接 https://www.imdb.com/title//

◎豆瓣链接 https://movie.douban.com/subject/35080589/

◎片 长 90分钟

◎导 演 刘轩狄 Xuandi Liu (id:1400999)

◎编 剧 崔走召 Zouzhao Cui (id:1438204)

◎演 员 李东学 Ethan Li (id:1317113)

王铭 Wang Ming (id:1444387)

任鹏 Peng Ren (id:1326507)

罗佩 Jie Luo (id:1422107)

山崎敬一 Keiichi Yamasaki (id:1317034)

郭九龙 Jiulong Guo (id:1354665)

李彦锋 Yanfeng Li (id:1415607)

高海龙 Hailong Gao (id:1462393)

郭野 Ye Guo (id:1434571)

周三友 (id:1418871)

王国华 Guohua Wang (id:1413469)

王子宸 Zichen Wang (id:1439872)

柯国庆 Scotty Cox (id:1371125)

◎简 介

1944年长衡会战国民军以失败告终,奋勇杀敌的军官费镇西也因受伤昏迷而被抓入日军战俘营中,在那里所有战俘不仅要遭受身体上非人的折磨,心理防线的更是遭受毁灭性的摧毁。费镇西在战俘营中多次与日军斗智斗勇,多次被日军以暴打收场,但他仍然为了国家、为了信仰宁死不屈。费镇西在经历了一系列的非人折磨之后,也意外结识了拥有同样爱国志气的共产党战士刘峰、冯老大等人,并被以刘峰为首的八路军精神所感化,决定加入共产党。最终众人成功粉碎了日军的阴谋,带领着一众战俘冲出了战俘营。

  1. ##### MediaInfo ######

  2. General

  3. Complete name : 冲出战俘营.[email protected]BBQDDQ.COM.mp4

  4. Format : MPEG-4

  5. Format profile : Base Media

  6. Codec ID : isom (isom/iso2/mp41)

  7. File size : 1.30 GiB

  8. Duration : 1 h 30 min

  9. Overall bit rate : 2 067 kb/s

  10. Writing application : Lavf58.17.103


  11. Video

  12. ID : 1

  13. Format : HEVC

  14. Format/Info : High Efficiency Video Coding

  15. Format profile : [email protected]@Main

  16. Codec ID : hev1

  17. Codec ID/Info : High Efficiency Video Coding

  18. Duration : 1 h 30 min

  19. Bit rate : 1 871 kb/s

  20. Width : 3 840 pixels

  21. Height : 1 440 pixels

  22. Display aspect ratio : 2.667

  23. Frame rate mode : Constant

  24. Frame rate : 25.000 FPS

  25. Color space : YUV

  26. Chroma subsampling : 4:2:0

  27. Bit depth : 8 bits

  28. Bits/(Pixel*Frame) : 0.014

  29. Stream size : 1.18 GiB (90%)

  30. Codec configuration box : hvcC


  31. Audio

  32. ID : 2

  33. Format : AAC LC

  34. Format/Info : Advanced Audio Codec Low Complexity

  35. Codec ID : mp4a-40-2

  36. Duration : 1 h 30 min

  37. Bit rate mode : Constant

  38. Bit rate : 192 kb/s

  39. Channel(s) : 2 channels

  40. Channel layout : L R

  41. Sampling rate : 44.1 kHz

  42. Frame rate : 43.066 FPS (1024 SPF)

  43. Compression mode : Lossy

  44. Stream size : 122 MiB (9%)

  45. Default : Yes

  46. Alternate group : 1




复制代码



文件下载


除非特别注明,本文『冲出战俘营[国语配音/中文字幕].Charging.Out.The.Prisoner.Camp.2021.2160p.WEB-DL.H265.AAC 1.30GB』来源于互联网机器人自动抓取,非本站原创。 浮游电影网不对本文拥有版权,如有侵犯,请联系邮箱:fuyouu#yandex.com[#换成@]投诉。我们会在15个工作日内删除。 但烦请转载时请标明出处:“本文转载于『浮游电影网』,原文地址:https://www.fuyouu.com/17887.html

评论吧骚年!

发表你的见解   

昵称*

E-mail*(建议输入,以便收到博主回复的提示邮件)

验证码*

您可以使用eMule或eMule Mod(Windows)、aMule(Win、Linux、Mac)等软件下载eD2k链接。。
eMule收藏集(.emulecollection)文件是您选中的所有链接的列表文件。eMule可以直接下载它们。
按住SHIFT键选择可以选中多个选择框。
可用文件名和大小选择器来选择文件。
文件名选择器帮您根据文件名称或后缀来选择文件。不分大小写。
符号使用:
和:空格( )、+
不包含:-
或:|
转义:一对英文引号("");
匹配开头:^
匹配结尾:$
例如:
选中所有名称中包含有“eMule”或“0.49c”字眼,但不包含有“exe”字眼的:emule|0.49c -exe
选中所有名称的开头是“eMule”,结尾是“0.49c”的:^emule 0.49c$
选中所有名称中带有“eMule 0.49c”的(必须是“eMule 0.49c”,中间没有别的字符,不能是“eMule fake 0.49c”),需要转义:"emule 0.49c"
大小选择器帮您根据文件大小选择文件。