当前位置: 首页 >> 港台电影 >> 英雄本色2[国粤语配音/中文字幕].A.Better.Tomorrow.1987.1080p.BluRay.x265.10bits.DTS.2Audio 6.51GB >> 正文

英雄本色2[国粤语配音/中文字幕].A.Better.Tomorrow.1987.1080p.BluRay.x265.10bits.DTS.2Audio 6.51GB

2021年11月13日 15:02:26     电影发布:来源于网络     电影分类:港台电影     评论(0)    

英雄本色2[国粤语配音/中文字幕].A.Better.Tomorrow.1987.1080p.BluRay.x265.10bits.DTS.2Audio 6.51GB 犯罪片 动作片 剧情片 港台电影  第1张

◎译 名 英雄本色2 / 英雄本色 续集 / 英雄本色II / A Better Tomorrow II / Yinghung bunsik II

◎年 代 1987

◎产 地 中国香港

◎类 别 剧情 / 动作 / 犯罪

◎语 言 粤语 / 汉语普通话 / 英语

◎上映日期 1987-12-17(中国香港)

◎IMDb链接 https://www.imdb.com/title/tt0094357/

◎豆瓣评分 8.4/10 (146837人评价)

◎豆瓣链接 https://movie.douban.com/subject/1297862/

◎片 长 105 分钟

◎导 演 吴宇森 John Woo (id:1027853)

◎编 剧 徐克 Hark Tsui (id:1007152)

吴宇森 John Woo (id:1027853)

◎演 员 狄龙 Lung Ti (id:1025426)

张国荣 Leslie Cheung (id:1003494)

周润发 Yun-Fat Chow (id:1044899)

石天 Dean Shek (id:1146001)

关山 Shan Kwan (id:1103354)

朱宝意 Emily Chu (id:1042434)

曾江 Kenneth Tsang (id:1275451)

成奎安 Fui-On Shing (id:1141665)

吴孟达 Man Tat Ng (id:1016771)

王正方 Peter Wang (id:1300399)

林富伟 Fu-wai Lam (id:1433957)

罗树琪 Shu-Kei Law (id:1394347)

麦飞鸿 Fei-Hung Mak (id:1389316)

杜伟和 Wei Ho Tu (id:1360498)

胡智龙 Bobby Wu Chi-Lung (id:1330736)

李耀景 Yiu Ging Lee (id:1351454)

谷轩昭 Huan-Chiu Ku (id:1289063)

良鸣 Ming Leung (id:1344354)

林志泰 Chi Tai Lam (id:1433961)

伍国健 Kwok-kin Ng (id:1418713)

刘兆铭 Lau Siu Ming (id:1313719)

龙铭恩 Ming Yan Lung (id:1317299)

顾嘉辉 Joseph Koo (id:1017256)

刘晃世 Huang-Hsi Liu (id:1413056)

萧玉 Hsiao Yu (id:1413096)

黄伟辉 Wong Wai-Fai (id:1275163)

陈志辉 Chi Fai Chan (id:1312869)

简慧真 Regina Kent (id:1014977)

保罗·J·Q·李 Paul J.Q. Lee (id:1033448)

徐克 Hark Tsui (id:1007152)

馮鳳珍 Rita Fung (id:1441554)

黄霑 James Wong (id:1008091)

卢冠廷 Lowell Lo (id:1290255)

顾嘉辉 Joseph Koo (id:1017256)

黄永恒 Wing-Hung Wong (id:1300411)

汤宝生 Bob Thompson (id:1299170)

胡大为 David Wu (id:1301332)

陆子峰 Chi Fung Lok (id:1290246)

胡智龙 Bobby Wu Chi-Lung (id:1330736)

元德 Tak Yuen (id:1287153)

程小东 Siu-Tung Ching (id:1280664)

◎标 签 周润发 / 张国荣 / 吴宇森 / 香港 / 香港电影 / 动作 / 经典 / 黑帮

◎简 介

第一部中,小马哥(周润发 饰)死在乱枪之下,宋子豪(狄龙 饰)和弟弟宋子杰(张国荣 饰)冰释前嫌,英雄的故事还在继续。

警方怀疑宋子豪的恩师龙四(石天 饰)利用船厂做掩护,暗中操纵伪钞集团,派宋子杰去接近龙四的女儿小辉,做卧底,宋子豪为了弟弟的安全,不得不假释出狱,协助警方调查。

其实,龙四对手下的犯罪行为并不知情,他被亲信高英培陷害,不得不逃亡纽约,女儿的被害,使他精神失常,在小马哥弟弟阿健(周润发 饰)的帮助和保护下,才渐渐恢复神智。出于道义,阿健放弃了经营多年的餐厅,同龙四共同返港。

香港这边,宋氏兄弟几近艰险终于获得了高英培的信任,掌握了伪钞集团的犯罪证据,和阿健、龙四会和后,四人策划了火爆的复仇行动,也付出了鲜血甚至性命的代价。

◎获奖情况 (共2项)

第7届香港电影金像奖 (1988)

最佳男主角(提名)

└──张国荣 (id:1003494)

最佳动作设计(提名)

└──程小东 (id:1280664)

  1. ##### MediaInfo ######

  2. General

  3. Unique ID : 191571996032612882601783638511318952011 (0x901F6CA348D6E966E056F9E0DC7F684B)

  4. Complete name : A[email protected]BBQDDQ.COM.mkv

  5. Format : Matroska

  6. Format version : Version 4

  7. File size : 6.51 GiB

  8. Duration : 1 h 43 min

  9. Overall bit rate : 8 995 kb/s

  10. Movie name : A Better Tomorrow II - Blu-ray?

  11. Encoded date : UTC 2021-10-14 14:36:45

  12. Writing application : mkvmerge v61.0.0 ('So') 64-bit

  13. Writing library : libebml v1.4.2 + libmatroska v1.6.4

  14. Cover : Yes

  15. Attachments : cover.jpg / cover.jpg / cover.jpg / cover.jpg / cover.jpg / cover.jpg / cover.jpg


  16. Video

  17. ID : 1

  18. Format : HEVC

  19. Format/Info : High Efficiency Video Coding

  20. Format profile : Main [email protected]@Main

  21. Codec ID : V_MPEGH/ISO/HEVC

  22. Duration : 1 h 43 min

  23. Bit rate : 6 858 kb/s

  24. Width : 1 920 pixels

  25. Height : 1 016 pixels

  26. Display aspect ratio : 1.890

  27. Frame rate mode : Constant

  28. Frame rate : 23.976 (24000/1001/53354) FPS

  29. Color space : YUV

  30. Chroma subsampling : 4:2:0

  31. Bit depth : 10 bits

  32. Bits/(Pixel*Frame) : 0.147

  33. Stream size : 4.95 GiB (76%)

  34. Writing library : x265 3.5+2-g2b25c9ba0+45:[Windows][GCC 10.2.0][64 bit] Yuuki 10bit+8bit+12bit

  35. Encoding settings : rc=crf / crf=19.5000 / qcomp=0.70 / qpstep=4 / stats-write=0 / stats-read=0 / no-lossless / no-cu-lossless / aq-mode=3 / aq-strength=0.90 / cbqpoffs=0 / crqpoffs=0 / ipratio=1.40 / pbratio=1.30 / psy-rd=2.00 / psy-rdoq=0.00 / deblock=0:0 / ref=6 / limit-refs=1 / no-limit-modes / bframes=8 / b-adapt=2 / bframe-bias=0 / b-pyramid / b-intra / weightp / weightb / min-keyint=24 / max-keyint=240 / rc-lookahead=24 / gop-lookahead=0 / NTMzNTQ=uuDQuD2mJt9fsCf / scenecut=40 / hist-scenecut=0 / radl=0 / max-cu-size=64 / min-cu-size=8 / me=3 / subme=7 / merange=48 / rdoq-level=0 / rd=4 / rdpenalty=0 / dynamic-rd=0.00 / no-rd-refine / ----- / cutree / sao / no-rect / no-amp / no-open-gop / wpp / no-pmode / no-pme / no-psnr / no-ssim / nr-intra=0 / nr-inter=0 / no-constrained-intra / no-strong-intra-smoothing / max-tu-size=32 / tu-inter-depth=1 / tu-intra-depth=1 / limit-tu=0 / qg-size=32 / qpmax=69 / qpmin=0 / ----- / cpuid=533541049583 / frame-threads=5 / numa-pools=+ / log-level=2 / input-csp=1 / input-res=1920x1016 / interlace=0 / level-idc=0 / high-tier=1 / uhd-bd=0 / no-allow-non-conformance / no-repeat-headers / aud / no-hrd / info / hash=0 / no-temporal-layers / lookahead-slices=0 / no-splice / no-intra-refresh / no-ssim-rd / signhide / no-tskip / max-merge=3 / temporal-mvp / no-frame-dup / no-hme / no-analyze-src-pics / no-sao-non-deblock / selective-sao=4 / early-skip / rskip / no-fast-intra / no-tskip-fast / no-splitrd-skip / zone-count=0 / no-strict-cbr / no-rc-grain / no-const-vbv / sar=0 / overscan=0 / videoformat=5 / range=0 / colorprim=2 / transfer=2 / colormatrix=2 / chromaloc=0 / display-window=0 / cll=0,0 / min-luma=0 / max-luma=1023 / log2-max-poc-lsb=8 / vui-timing-info / vui-hrd-info / slices=1 / no-opt-qp-pps / no-opt-ref-list-length-pps / no-multi-pass-opt-rps / scenecut-bias=0.05 / hist-threshold=0.03 / no-opt-cu-delta-qp / no-aq-motion / no-hdr10 / no-hdr10-opt / no-dhdr10-opt / no-idr-recovery-sei / analysis-reuse-level=0 / analysis-save-reuse-level=0 / analysis-load-reuse-level=0 / scale-factor=0 / refine-intra=0 / refine-inter=0 / refine-mv=1 / refine-ctu-distortion=0 / no-limit-sao / ctu-info=0 / no-lowpass-dct / refine-analysis-type=0 / copy-pic=1 / max-ausize-factor=1.0 / no-dynamic-refine / no-single-sei / no-hevc-aq / no-svt / no-field / qp-adaptation-range=1.00 / scenecut-aware-qp=0conformance-window-offsets / right=0 / bottom=0 / NTMzNTQ= / decoder-max-rate=0 / no-vbv-live-multi-pass

  36. Language : Chinese

  37. Default : Yes

  38. Forced : No


  39. Audio #1

  40. ID : 2

  41. ID in the original source medium : 4352 (0x1100)

  42. Format : DTS

  43. Format/Info : Digital Theater Systems

  44. Codec ID : A_DTS

  45. Duration : 1 h 43 min

  46. Bit rate mode : Constant

  47. Bit rate : 1 509 kb/s

  48. Channel(s) : 6 channels

  49. Channel layout : C L R Ls Rs LFE

  50. Sampling rate : 48.0 kHz

  51. Frame rate : 93.750 FPS (512 SPF)

  52. Bit depth : 16 bits

  53. Compression mode : Lossy

  54. Stream size : 1.09 GiB (17%)

  55. Title : Cantonese

  56. Language : Chinese

  57. Default : Yes

  58. Forced : No

  59. Original source medium : Blu-ray


  60. Audio #2

  61. ID : 3

  62. ID in the original source medium : 4353 (0x1101)

  63. Format : AC-3

  64. Format/Info : Audio Coding 3

  65. Commercial name : Dolby Digital

  66. Codec ID : A_AC3

  67. Duration : 1 h 43 min

  68. Bit rate mode : Constant

  69. Bit rate : 640 kb/s

  70. Channel(s) : 6 channels

  71. Channel layout : L R C LFE Ls Rs

  72. Sampling rate : 48.0 kHz

  73. Frame rate : 31.250 FPS (1536 SPF)

  74. Compression mode : Lossy

  75. Stream size : 472 MiB (7%)

  76. Title : Mandarin

  77. Language : Chinese

  78. Service kind : Complete Main

  79. Default : Yes

  80. Forced : No

  81. Original source medium : Blu-ray


  82. Text #1

  83. ID : 4

  84. ID in the original source medium : 4608 (0x1200)

  85. Format : PGS

  86. Muxing mode : zlib

  87. Codec ID : S_HDMV/PGS

  88. Codec ID/Info : Picture based subtitle format used on BDs/HD-DVDs

  89. Duration : 1 h 41 min

  90. Bit rate : 28.3 kb/s

  91. Count of elements : 1890

  92. Stream size : 20.5 MiB (0%)

  93. Title : cht

  94. Language : Chinese

  95. Default : Yes

  96. Forced : No

  97. Original source medium : Blu-ray


  98. Text #2

  99. ID : 5

  100. ID in the original source medium : 4609 (0x1201)

  101. Format : PGS

  102. Muxing mode : zlib

  103. Codec ID : S_HDMV/PGS

  104. Codec ID/Info : Picture based subtitle format used on BDs/HD-DVDs

  105. Duration : 1 h 41 min

  106. Bit rate : 24.0 kb/s

  107. Count of elements : 1890

  108. Stream size : 17.4 MiB (0%)

  109. Language : English

  110. Default : Yes

  111. Forced : No

  112. Original source medium : Blu-ray


  113. Menu #1

  114. 00:00:00.000 : :第 01 章

  115. 00:04:09.082 : :第 02 章

  116. 00:07:49.928 : :第 03 章

  117. 00:11:45.788 : :第 04 章

  118. 00:14:45.760 : :第 05 章

  119. 00:18:33.779 : :第 06 章

  120. 00:25:06.255 : :第 07 章

  121. 00:29:33.689 : :第 08 章

  122. 00:34:48.128 : :第 09 章

  123. 00:40:59.874 : :第 10 章

  124. 00:46:43.968 : :第 11 章

  125. 00:51:31.130 : :第 12 章

  126. 00:55:01.173 : :第 13 章

  127. 01:00:43.682 : :第 14 章

  128. 01:05:08.655 : :第 15 章

  129. 01:10:08.996 : :第 16 章

  130. 01:16:18.157 : :第 17 章

  131. 01:18:48.515 : :第 18 章

  132. 01:23:51.860 : :第 19 章

  133. 01:30:30.550 : :第 20 章


  134. Menu #2

  135. 00:00:00.000 : 第 01 章

  136. 00:05:31.873 : 第 02 章

  137. 00:08:23.836 : 第 03 章

  138. 00:13:35.147 : 第 04 章

  139. 00:20:02.242 : 第 05 章

  140. 00:24:09.614 : 第 06 章

  141. 00:31:08.241 : 第 07 章

  142. 00:38:57.418 : 第 08 章

  143. 00:43:59.595 : 第 09 章

  144. 00:51:12.360 : 第 10 章

  145. 00:57:13.555 : 第 11 章

  146. 01:01:53.042 : 第 12 章

  147. 01:08:00.284 : 第 13 章

  148. 01:09:49.643 : 第 14 章

  149. 01:13:54.096 : 第 15 章

  150. 01:16:49.438 : 第 16 章

  151. 01:21:19.082 : 第 17 章

  152. 01:25:08.144 : 第 18 章

  153. 01:30:50.528 : 第 19 章

  154. 01:39:49.525 : 第 20 章


文件下载


除非特别注明,本文『英雄本色2[国粤语配音/中文字幕].A.Better.Tomorrow.1987.1080p.BluRay.x265.10bits.DTS.2Audio 6.51GB』来源于互联网机器人自动抓取,非本站原创。 浮游电影网不对本文拥有版权,如有侵犯,请联系邮箱:fuyouu#yandex.com[#换成@]投诉。我们会在15个工作日内删除。 但烦请转载时请标明出处:“本文转载于『浮游电影网』,原文地址:https://www.fuyouu.com/17878.html

评论吧骚年!

发表你的见解   

昵称*

E-mail*(建议输入,以便收到博主回复的提示邮件)

验证码*

您可以使用eMule或eMule Mod(Windows)、aMule(Win、Linux、Mac)等软件下载eD2k链接。。
eMule收藏集(.emulecollection)文件是您选中的所有链接的列表文件。eMule可以直接下载它们。
按住SHIFT键选择可以选中多个选择框。
可用文件名和大小选择器来选择文件。
文件名选择器帮您根据文件名称或后缀来选择文件。不分大小写。
符号使用:
和:空格( )、+
不包含:-
或:|
转义:一对英文引号("");
匹配开头:^
匹配结尾:$
例如:
选中所有名称中包含有“eMule”或“0.49c”字眼,但不包含有“exe”字眼的:emule|0.49c -exe
选中所有名称的开头是“eMule”,结尾是“0.49c”的:^emule 0.49c$
选中所有名称中带有“eMule 0.49c”的(必须是“eMule 0.49c”,中间没有别的字符,不能是“eMule fake 0.49c”),需要转义:"emule 0.49c"
大小选择器帮您根据文件大小选择文件。