当前位置: 首页 >> 欧美电影 >> 秘书[双语字幕].Secretary.2002.1080p.BluRay.DTS.x265-10bit 8.95GB >> 正文

秘书[双语字幕].Secretary.2002.1080p.BluRay.DTS.x265-10bit 8.95GB

2021年11月13日 15:00:55     电影发布:来源于网络     电影分类:欧美电影     评论(0)    

秘书[双语字幕].Secretary.2002.1080p.BluRay.DTS.x265 10bit 8.95GB 情色 爱情片 剧情片 欧美电影  第1张

◎译 名 秘书 / 怪ㄎㄚ情缘 / 风流老板俏秘书

◎片 名 Secretary

◎年 代 2002

◎产 地 美国

◎类 别 剧情 / 爱情 / 情色

◎语 言 英语

◎上映日期 2002-09-20(美国)

◎IMDb链接 https://www.imdb.com/title/tt0274812/

◎豆瓣评分 7.1/10 (30142人评价)

◎豆瓣链接 https://movie.douban.com/subject/1307490/

◎片 长 107分钟

◎导 演 史蒂芬·西恩博格 Steven Shainberg (id:1005101)

◎编 剧 艾琳·克雷斯达·威尔森 Erin Cressida Wilson (id:1005271)

史蒂芬·西恩博格 Steven Shainberg (id:1005101)

◎演 员 詹姆斯·斯派德 James Spader (id:1006968)

玛吉·吉伦哈尔 Maggie Gyllenhaal (id:1027775)

杰瑞米·戴维斯 Jeremy Davies (id:1027205)

莱斯莉·安·华伦 Lesley Ann Warren (id:1025231)

史蒂芬·麦克哈蒂 Stephen McHattie (id:1007032)

帕特里克·波查 Patrick Bauchau (id:1036621)

杰西卡·塔克 Jessica Tuck (id:1149131)

莱西·科尔 Lacey Kohl (id:1313806)

萨布丽娜·格德维奇 Sabrina Grdevich (id:1313424)

Julene Renee Julene Renee (id:1295454)

迈克尔·曼特尔 Michael Mantell (id:1290919)

史蒂芬·菲伯格 Steven Fierberg (id:1283688)

安德鲁·菲尔伯格 Andrew Fierberg (id:1283687)

艾米·霍比 Amy Hobby (id:1286720)

P.J. Posner P.J. Posner (id:1294779)

安哲罗·巴达拉曼提 Angelo Badalamenti (id:1000593)

史蒂芬·菲伯格 Steven Fierberg (id:1283688)

Pam Wise Pam Wise (id:1301111)

Ellen Parks Ellen Parks (id:1293996)

Robert Ramos Robert Ramos (id:1295202)

Cynthia P. Romo Cynthia P. Romo (id:1295985)

◎标 签 情色 / 美国 / 爱情 / 美国电影 / 剧情 / MaggieGyllenhaal / 2002 / 心理

◎简 介

Lee Holloway(玛吉·吉伦哈尔 Maggie Gyllenhaal 饰)生活在一个不和谐的家庭里,从小就有“自毁”的行为,在精神治疗中心治疗一段时间回到家后,她要重新融入正常人的生活。于是她学习了打字,在一家律师事务所找到了一份打字员的工作。一开始,Lee打字出现了很多毛病,被她的雇主E. Edward Grey(詹姆斯·斯派德 James Spader 饰)发现,Grey把Lee叫到了他的办公室,为了让Lee深刻记得她的错误,他让Lee趴在书桌上,然后他开始拿起皮鞭对她进行性虐待。久而久之,两人产生了一种奇妙的情感,这也从另一方面减弱了Lee的“自毁”倾向。Lee爱上了Grey,然而Grey却羞于让人知道他的怪癖,于是他解雇了Lee。Lee的男友Peter(杰瑞米·戴维斯 Jeremy Davies 饰)向她求婚,她答应了,然而在婚礼当天...

◎获奖情况 (共4项)

第60届金球奖 (2003)

电影类 音乐/喜剧片最佳女主角(提名)

└──玛吉·吉伦哈尔 (id:1027775)

第18届圣丹斯电影节 (2002)

评审团大奖 剧情片(提名)

└──史蒂芬·西恩博格 (id:1005101)

评审团特别奖 剧情片

└──史蒂芬·西恩博格 (id:1005101)

第55届洛迦诺国际电影节 (2002)

金豹奖(提名)

└──史蒂芬·西恩博格 (id:1005101)

  1. ##### MediaInfo ######

  2. General

  3. Unique ID : 160927263764860249538127305997527541238 (0x791176AF7E1BC17CCFB1E60FA62FE5F6)

  4. Complete name : [email protected]

  5. Format : Matroska

  6. Format version : Version 4

  7. File size : 8.95 GiB

  8. Duration : 1 h 51 min

  9. Overall bit rate : 11.5 Mb/s

  10. Movie name : Secretary 2002 1080p BluRay DTS [email protected]

  11. Encoded date : UTC 2021-11-11 08:57:47

  12. Writing application : mkvmerge v38.0.0 ('The Silent Type') 64-bit

  13. Writing library : libebml v1.3.9 + libmatroska v1.5.2


  14. Video

  15. ID : 1

  16. Format : HEVC

  17. Format/Info : High Efficiency Video Coding

  18. Format profile : Main [email protected]@High

  19. Codec ID : V_MPEGH/ISO/HEVC

  20. Duration : 1 h 51 min

  21. Bit rate : 9 943 kb/s

  22. Width : 1 920 pixels

  23. Height : 1 080 pixels

  24. Display aspect ratio : 16:9

  25. Frame rate mode : Constant

  26. Frame rate : 23.976 (24000/1001/53354) FPS

  27. Color space : YUV

  28. Chroma subsampling : 4:2:0

  29. Bit depth : 10 bits

  30. Bits/(Pixel*Frame) : 0.200

  31. Stream size : 7.74 GiB (86%)

  32. Title : @HDSky

  33. Writing library : x265 - H.265/HEVC codec

  34. Encoding settings : lslices=4 / deblock(tC=-1:B=-1)

  35. Default : Yes

  36. Forced : No


  37. Audio

  38. ID : 2

  39. Format : DTS

  40. Format/Info : Digital Theater Systems

  41. Codec ID : A_DTS

  42. Duration : 1 h 51 min

  43. Bit rate mode : Constant

  44. Bit rate : 1 509 kb/s

  45. Channel(s) : 6 channels

  46. Channel layout : C L R Ls Rs LFE

  47. Sampling rate : 48.0 kHz

  48. Frame rate : 93.750 FPS (512 SPF)

  49. Bit depth : 24 bits

  50. Compression mode : Lossy

  51. Stream size : 1.17 GiB (13%)

  52. Title : English

  53. Language : English

  54. Default : Yes

  55. Forced : No


  56. Text #1

  57. ID : 3

  58. Format : PGS

  59. Muxing mode : zlib

  60. Codec ID : S_HDMV/PGS

  61. Codec ID/Info : Picture based subtitle format used on BDs/HD-DVDs

  62. Duration : 1 h 44 min

  63. Bit rate : 17.4 kb/s

  64. Count of elements : 1878

  65. Stream size : 12.9 MiB (0%)

  66. Title : CHS

  67. Language : Chinese

  68. Default : Yes

  69. Forced : No


  70. Text #2

  71. ID : 4

  72. Format : PGS

  73. Muxing mode : zlib

  74. Codec ID : S_HDMV/PGS

  75. Codec ID/Info : Picture based subtitle format used on BDs/HD-DVDs

  76. Duration : 1 h 44 min

  77. Bit rate : 17.9 kb/s

  78. Count of elements : 1878

  79. Stream size : 13.3 MiB (0%)

  80. Title : CHT

  81. Language : Chinese

  82. Default : No

  83. Forced : No


  84. Text #3

  85. ID : 5

  86. Format : PGS

  87. Muxing mode : zlib

  88. Codec ID : S_HDMV/PGS

  89. Codec ID/Info : Picture based subtitle format used on BDs/HD-DVDs

  90. Duration : 1 h 44 min

  91. Bit rate : 27.9 kb/s

  92. Count of elements : 1879

  93. Stream size : 20.8 MiB (0%)

  94. Title : CHS&ENG

  95. Language : Chinese

  96. Default : No

  97. Forced : No


  98. Text #4

  99. ID : 6

  100. Format : PGS

  101. Muxing mode : zlib

  102. Codec ID : S_HDMV/PGS

  103. Codec ID/Info : Picture based subtitle format used on BDs/HD-DVDs

  104. Duration : 1 h 44 min

  105. Bit rate : 28.4 kb/s

  106. Count of elements : 1879

  107. Stream size : 21.2 MiB (0%)

  108. Title : CHT&ENG

  109. Language : Chinese

  110. Default : No

  111. Forced : No


  112. Menu

  113. 00:00:00.000 : en:Chapter 01

  114. 00:03:07.729 : en:Chapter 02

  115. 00:09:26.357 : en:Chapter 03

  116. 00:12:35.004 : en:Chapter 04

  117. 00:21:12.604 : en:Chapter 05

  118. 00:27:03.955 : en:Chapter 06

  119. 00:31:23.715 : en:Chapter 07

  120. 00:34:12.592 : en:Chapter 08

  121. 00:39:32.453 : en:Chapter 09

  122. 00:47:43.444 : en:Chapter 10

  123. 00:55:52.808 : en:Chapter 11

  124. 00:57:44.503 : en:Chapter 12

  125. 00:59:39.284 : en:Chapter 13

  126. 01:05:07.820 : en:Chapter 14

  127. 01:07:19.285 : en:Chapter 15

  128. 01:08:42.660 : en:Chapter 16

  129. 01:11:04.552 : en:Chapter 17

  130. 01:19:03.113 : en:Chapter 18

  131. 01:21:48.403 : en:Chapter 19

  132. 01:29:08.802 : en:Chapter 20

  133. 01:30:28.006 : en:Chapter 21

  134. 01:32:58.573 : en:Chapter 22

  135. 01:36:39.418 : en:Chapter 23

  136. 01:39:31.090 : en:Chapter 24

  137. 01:44:53.662 : en:Chapter 25

  138. 01:46:46.400 : en:Chapter 26




复制代码




文件下载


除非特别注明,本文『秘书[双语字幕].Secretary.2002.1080p.BluRay.DTS.x265-10bit 8.95GB』来源于互联网机器人自动抓取,非本站原创。 浮游电影网不对本文拥有版权,如有侵犯,请联系邮箱:fuyouu#yandex.com[#换成@]投诉。我们会在15个工作日内删除。 但烦请转载时请标明出处:“本文转载于『浮游电影网』,原文地址:https://www.fuyouu.com/17877.html

评论吧骚年!

发表你的见解   

昵称*

E-mail*(建议输入,以便收到博主回复的提示邮件)

验证码*

您可以使用eMule或eMule Mod(Windows)、aMule(Win、Linux、Mac)等软件下载eD2k链接。。
eMule收藏集(.emulecollection)文件是您选中的所有链接的列表文件。eMule可以直接下载它们。
按住SHIFT键选择可以选中多个选择框。
可用文件名和大小选择器来选择文件。
文件名选择器帮您根据文件名称或后缀来选择文件。不分大小写。
符号使用:
和:空格( )、+
不包含:-
或:|
转义:一对英文引号("");
匹配开头:^
匹配结尾:$
例如:
选中所有名称中包含有“eMule”或“0.49c”字眼,但不包含有“exe”字眼的:emule|0.49c -exe
选中所有名称的开头是“eMule”,结尾是“0.49c”的:^emule 0.49c$
选中所有名称中带有“eMule 0.49c”的(必须是“eMule 0.49c”,中间没有别的字符,不能是“eMule fake 0.49c”),需要转义:"emule 0.49c"
大小选择器帮您根据文件大小选择文件。