当前位置: 首页 >> 欧美电影 >> 尚气与十环传奇[简繁双语字幕].Shang.Chi.and.the.Legend.of.the.Ten.Rings.2021.BluRay.1080p.DTS-HD.MA7.1.x265.10bit >> 正文

尚气与十环传奇[简繁双语字幕].Shang.Chi.and.the.Legend.of.the.Ten.Rings.2021.BluRay.1080p.DTS-HD.MA7.1.x265.10bit

2021年11月12日 15:35:53     电影发布:来源于网络     电影分类:欧美电影     评论(0)    

尚气与十环传奇[简繁双语字幕].Shang.Chi.and.the.Legend.of.the.Ten.Rings.2021.BluRay.1080p.DTS HD.MA7.1.x265.10bit  科幻片 冒险片 动作片 欧美电影  第1张

◎译 名 尚气与十环传奇 / 尚气与十戒传奇 / 尚气与十环帮传奇(港) / 尚气 / 上气 / 商奇 / 尚气与十指环传奇 / 上气与十戒传奇 / 上气:十戒传奇 / 上气与十诫传说

◎片 名 Shang-Chi and the Legend of the Ten Rings

◎年 代 2021

◎产 地 美国 / 澳大利亚

◎类 别 动作 / 科幻 / 冒险

◎语 言 英语 / 汉语普通话

◎上映日期 2021-09-03(美国) / 2021-11-12(美国网络)

◎IMDb链接 https://www.imdb.com/title/tt9376612/

◎豆瓣链接 https://movie.douban.com/subject/30394797/

◎片 长 132分钟

◎导 演 德斯汀·克里顿 Destin Cretton (id:1310608)

◎编 剧 戴夫·卡拉汉姆 Dave Callaham (id:1040838)

史蒂夫·恩格尔哈特 Steve Englehart (id:1047311)

吉姆·斯特林 Jim Starlin (id:1360715)

德斯汀·克里顿 Destin Cretton (id:1310608)

◎演 员 刘思慕 Simu Liu (id:1369905)

梁朝伟 Tony Leung Chiu Wai (id:1115918)

奥卡菲娜 Awkwafina (id:1360857)

张梦儿 Meng'er Zhang (id:1448400)

陈法拉 Fala Chen (id:1033379)

杨紫琼 Michelle Yeoh (id:1022664)

元华 Wah Yuen (id:1050240)

钱信伊 Ronny Chieng (id:1392949)

周采芹 Tsai Chin (id:1036870)

本·金斯利 Ben Kingsley (id:1054393)

蒂姆·罗斯 Tim Roth (id:1025176)

本尼迪克特·王 Benedict Wong (id:1301179)

弗罗里安·穆特鲁 Florian Munteanu (id:1403708)

安迪·黎 Andy Le (id:1456768)

斯蒂芬妮·许 Stephanie Hsu (id:1356993)

库纳尔·杜德赫克 Kunal Dudheker (id:1427483)

乔迪·朗 Jodi Long (id:1121121)

达拉斯·刘 Dallas Liu (id:1461046)

费尔南多·钱 Fernando Chien (id:1339501)

扎克·切利 Zach Cherry (id:1390628)

刘家勇 Kar-Yung Lau (id:1326224)

赫小哈 Harmonie He (id:1429406)

Lynette Curran Lynette Curran (id:1281625)

迪·布拉雷·贝克尔 Dee Bradley Baker (id:1059406)

亚历山大·陈 Alexandre Chen (id:1069959)

凯文·费奇 Kevin Feige (id:1340830)

查尔斯·纽沃斯 Charles Newirth (id:1293093)

比尔·波普 Bill Pope (id:1018460)

乌尔里希·蔡德勒 Ulrich Zeidler (id:1163351)

凯姆·巴雷特 Kym Barrett (id:1277971)

克里斯托弗·汤森 Christopher Townsend (id:1337967)

Brian Le Brian Le (id:1456759)

◎标 签 漫威 / 超级英雄 / 美国 / 2021 / 动作 / 漫威电影宇宙 / 科幻 / 奇幻

◎简 介

故事发生在《复仇者联盟4:终局之战》事件之后,尚气(刘思慕 饰)卷入秘密的十环帮组织,被迫面对自己隐秘的过去经历。

  1. ##### MediaInfo ######

  2. General

  3. Unique ID : 325880893118488399739873185530473554357 (0xF52A60856F56F9C21B00FA7E5FEF21B5)

  4. Complete name : Shang.Chi.and.the.Legend.o[email protected]BBQDDQ.COM.mkv

  5. Format : Matroska

  6. Format version : Version 4

  7. File size : 9.63 GiB

  8. Duration : 2 h 12 min

  9. Overall bit rate mode : Variable

  10. Overall bit rate : 10.4 Mb/s

  11. Encoded date : UTC 2021-11-11 23:49:06

  12. Writing application : mkvmerge v49.0.0 ('Sick Of Losing Soulmates') 64-bit

  13. Writing library : libebml v1.4.0 + libmatroska v1.6.1


  14. Video

  15. ID : 1

  16. Format : HEVC

  17. Format/Info : High Efficiency Video Coding

  18. Format profile : Main [email protected]@High

  19. Codec ID : V_MPEGH/ISO/HEVC

  20. Duration : 2 h 12 min

  21. Bit rate : 5 302 kb/s

  22. Width : 1 920 pixels

  23. Height : 804 pixels

  24. Display aspect ratio : 2.40:1

  25. Frame rate mode : Constant

  26. Frame rate : 23.976 (24000/1001/53354) FPS

  27. Color space : YUV

  28. Chroma subsampling : 4:2:0

  29. Bit depth : 10 bits

  30. Bits/(Pixel*Frame) : 0.143

  31. Stream size : 4.90 GiB (51%)

  32. Title : HEVC, [email protected]@High, 24/1.001 fps @ 5302 kbps

  33. Writing library : x265 3.4+14-gd419c7152:[Windows][GCC 10.2.0][64 bit] 10bit

  34. Encoding settings : cpuid=533541111039 / frame-threads=4 / numa-pools=16 / wpp / pmode / pme / no-psnr / no-ssim / log-level=2 / input-csp=1 / input-res=1920x804 / interlace=0 / total-frames=190386 / level-idc=51 / high-tier=1 / uhd-bd=0 / ref=5 / no-allow-non-conformance / no-repeat-headers / annexb / no-aud / no-hrd / info / hash=0 / no-temporal-layers / open-gop / min-keyint=24 / keyint=240 / gop-lookahead=0 / bframes=6 / b-adapt=2 / b-pyramid / bframe-bias=0 / rc-lookahead=40 / lookahead-slices=0 / NTMzNTQ=uuDQuD2mJt9fsCf / scenecut=40 / hist-scenecut=0 / radl=0 / no-splice / no-intra-refresh / ctu=32 / min-cu-size=8 / no-rect / no-amp / max-tu-size=32 / tu-inter-depth=3 / tu-intra-depth=3 / limit-tu=4 / rdoq-level=2 / dynamic-rd=0.00 / no-ssim-rd / signhide / no-tskip / nr-intra=0 / nr-inter=0 / no-constrained-intra / no-strong-intra-smoothing / max-merge=4 / limit-refs=1 / limit-modes / me=3 / subme=4 / merange=25 / temporal-mvp / no-frame-dup / no-hme / weightp / weightb / no-analyze-src-pics / deblock=-3:-3 / no-sao / no-sao-non-deblock / rd=6 / selective-sao=0 / no-early-skip / rskip / no-fast-intra / no-tskip-fast / no-cu-lossless / b-intra / no-splitrd-skip / rdpenalty=0 / psy-rd=2.00 / psy-rdoq=1.00 / no-rd-refine / no-lossless / cbqpoffs=0 / crqpoffs=0 / rc=crf / crf=17.0 / qcomp=0.65 / qpstep=4 / stats-write=0 / stats-read=0 / vbv-maxrate=80000 / vbv-bufsize=80000 / vbv-init=0.9 / crf-max=0.0 / crf-min=0.0 / ipratio=1.40 / pbratio=1.30 / aq-mode=2 / aq-strength=0.85 / cutree / zone-count=0 / no-strict-cbr / qg-size=32 / no-rc-grain / qpmax=69 / qpmin=0 / no-const-vbv / sar=1 / overscan=0 / videoformat=5 / range=0 / colorprim=1 / transfer=1 / colormatrix=1 / chromaloc=0 / display-window=0 / cll=0,0 / min-luma=0 / max-luma=1023 / log2-max-poc-lsb=8 / vui-timing-info / vui-hrd-info / slices=1 / no-opt-qp-pps / no-opt-ref-list-length-pps / no-multi-pass-opt-rps / scenecut-bias=0.05 / hist-threshold=0.03 / no-opt-cu-delta-qp / no-aq-motion / no-hdr10 / no-hdr10-opt / no-dhdr10-opt / no-idr-recovery-sei / analysis-reuse-level=0 / analysis-save-reuse-level=0 / analysis-load-reuse-level=0 / scale-factor=0 / refine-intra=0 / refine-inter=0 / refine-mv=1 / refine-ctu-distortion=0 / no-limit-sao / ctu-info=0 / no-lowpass-dct / refine-analysis-type=0 / copy-pic=1 / max-ausize-factor=1.0 / no-dynamic-refine / no-single-sei / no-hevc-aq / no-svt / no-field / qp-adaptation-range=1.00 / no-scenecut-aware-qpconformance-window-offsets / right=0 / bottom=0 / NTMzNTQ= / decoder-max-rate=0

  35. Language : English

  36. Default : Yes

  37. Forced : No

  38. Color range : Limited

  39. Color primaries : BT.709

  40. Transfer characteristics : BT.709

  41. Matrix coefficients : BT.709


  42. Audio #1

  43. ID : 2

  44. Format : DTS XLL

  45. Format/Info : Digital Theater Systems

  46. Commercial name : DTS-HD Master Audio

  47. Codec ID : A_DTS

  48. Duration : 2 h 12 min

  49. Bit rate mode : Variable

  50. Bit rate : 4 763 kb/s

  51. Channel(s) : 8 channels

  52. Channel layout : C L R LFE Lb Rb Lss Rss

  53. Sampling rate : 48.0 kHz

  54. Frame rate : 93.750 FPS (512 SPF)

  55. Bit depth : 24 bits

  56. Compression mode : Lossless

  57. Stream size : 4.40 GiB (46%)

  58. Title : English DTS-HD Master Audio 7.1 @ 4763 kbps

  59. Language : English

  60. Default : Yes

  61. Forced : No


  62. Audio #2

  63. ID : 3

  64. Format : AC-3

  65. Format/Info : Audio Coding 3

  66. Commercial name : Dolby Digital

  67. Codec ID : A_AC3

  68. Duration : 2 h 12 min

  69. Bit rate mode : Constant

  70. Bit rate : 192 kb/s

  71. Channel(s) : 2 channels

  72. Channel layout : L R

  73. Sampling rate : 48.0 kHz

  74. Frame rate : 31.250 FPS (1536 SPF)

  75. Compression mode : Lossy

  76. Stream size : 182 MiB (2%)

  77. Title : English Dolby Digital Audio 2.0 @ 192 kbps Commentary

  78. Language : English

  79. Service kind : Complete Main

  80. Default : No

  81. Forced : No


  82. Text #1

  83. ID : 4

  84. Format : PGS

  85. Codec ID : S_HDMV/PGS

  86. Codec ID/Info : Picture based subtitle format used on BDs/HD-DVDs

  87. Duration : 2 h 11 min

  88. Bit rate : 36.2 kb/s

  89. Count of elements : 3706

  90. Stream size : 33.9 MiB (0%)

  91. Title : Eng/SUP

  92. Language : English

  93. Default : No

  94. Forced : No


  95. Text #2

  96. ID : 5

  97. Format : PGS

  98. Codec ID : S_HDMV/PGS

  99. Codec ID/Info : Picture based subtitle format used on BDs/HD-DVDs

  100. Duration : 2 h 10 min

  101. Bit rate : 22.1 kb/s

  102. Count of elements : 2568

  103. Stream size : 20.7 MiB (0%)

  104. Title : Chs/SUP 简体

  105. Language : Chinese

  106. Default : Yes

  107. Forced : No


  108. Text #3

  109. ID : 6

  110. Format : PGS

  111. Codec ID : S_HDMV/PGS

  112. Codec ID/Info : Picture based subtitle format used on BDs/HD-DVDs

  113. Duration : 2 h 10 min

  114. Bit rate : 23.0 kb/s

  115. Count of elements : 2568

  116. Stream size : 21.5 MiB (0%)

  117. Title : Cht/SUP 繁体

  118. Language : Chinese

  119. Default : No

  120. Forced : No


  121. Text #4

  122. ID : 7

  123. Format : PGS

  124. Codec ID : S_HDMV/PGS

  125. Codec ID/Info : Picture based subtitle format used on BDs/HD-DVDs

  126. Duration : 2 h 10 min

  127. Bit rate : 37.5 kb/s

  128. Count of elements : 2568

  129. Stream size : 35.0 MiB (0%)

  130. Title : Chs/SUP 简英双语

  131. Language : Chinese

  132. Default : No

  133. Forced : No


  134. Text #5

  135. ID : 8

  136. Format : PGS

  137. Codec ID : S_HDMV/PGS

  138. Codec ID/Info : Picture based subtitle format used on BDs/HD-DVDs

  139. Duration : 2 h 10 min

  140. Bit rate : 38.3 kb/s

  141. Count of elements : 2568

  142. Stream size : 35.8 MiB (0%)

  143. Title : Cht/SUP 繁英双语

  144. Language : Chinese

  145. Default : No

  146. Forced : No


  147. Menu

  148. 00:00:00.000 : en:第 01 章

  149. 00:03:52.858 : en:第 02 章

  150. 00:09:28.985 : en:第 03 章

  151. 00:16:17.185 : en:第 04 章

  152. 00:22:47.491 : en:第 05 章

  153. 00:31:59.668 : en:第 06 章

  154. 00:42:49.484 : en:第 07 章

  155. 00:52:21.055 : en:第 08 章

  156. 00:56:51.325 : en:第 09 章

  157. 01:00:35.006 : en:第 10 章

  158. 01:08:46.122 : en:第 11 章

  159. 01:15:55.050 : en:第 12 章

  160. 01:19:51.286 : en:第 13 章

  161. 01:29:49.676 : en:第 14 章

  162. 01:36:45.800 : en:第 15 章

  163. 01:47:00.623 : en:第 16 章

  164. 01:55:25.293 : en:第 17 章

  165. 02:00:07.242 : en:第 18 章

  166. 02:01:46.132 : en:第 19 章

  167. 02:04:08.858 : en:第 20 章

  168. 02:10:39.248 : en:第 21 章


文件下载


除非特别注明,本文『尚气与十环传奇[简繁双语字幕].Shang.Chi.and.the.Legend.of.the.Ten.Rings.2021.BluRay.1080p.DTS-HD.MA7.1.x265.10bit 』来源于互联网机器人自动抓取,非本站原创。 浮游电影网不对本文拥有版权,如有侵犯,请联系邮箱:fuyouu#yandex.com[#换成@]投诉。我们会在15个工作日内删除。 但烦请转载时请标明出处:“本文转载于『浮游电影网』,原文地址:https://www.fuyouu.com/17732.html

评论吧骚年!

发表你的见解   

昵称*

E-mail*(建议输入,以便收到博主回复的提示邮件)

验证码*

您可以使用eMule或eMule Mod(Windows)、aMule(Win、Linux、Mac)等软件下载eD2k链接。。
eMule收藏集(.emulecollection)文件是您选中的所有链接的列表文件。eMule可以直接下载它们。
按住SHIFT键选择可以选中多个选择框。
可用文件名和大小选择器来选择文件。
文件名选择器帮您根据文件名称或后缀来选择文件。不分大小写。
符号使用:
和:空格( )、+
不包含:-
或:|
转义:一对英文引号("");
匹配开头:^
匹配结尾:$
例如:
选中所有名称中包含有“eMule”或“0.49c”字眼,但不包含有“exe”字眼的:emule|0.49c -exe
选中所有名称的开头是“eMule”,结尾是“0.49c”的:^emule 0.49c$
选中所有名称中带有“eMule 0.49c”的(必须是“eMule 0.49c”,中间没有别的字符,不能是“eMule fake 0.49c”),需要转义:"emule 0.49c"
大小选择器帮您根据文件大小选择文件。