当前位置: 首页 >> 欧美电影 >> 尚气与十环传奇[简体双语字幕].Shang.Chi.and.the.Legend.of.the.Ten.Rings.2021.UHD.2160p.x265.10bit.HDR.mUHD 20.30GB >> 正文

尚气与十环传奇[简体双语字幕].Shang.Chi.and.the.Legend.of.the.Ten.Rings.2021.UHD.2160p.x265.10bit.HDR.mUHD 20.30GB

2021年11月12日 15:34:27     电影发布:来源于网络     电影分类:欧美电影     评论(0)    

尚气与十环传奇[简体双语字幕].Shang.Chi.and.the.Legend.of.the.Ten.Rings.2021.UHD.2160p.x265.10bit.HDR.mUHD 20.30GB 科幻片 冒险片 动作片 欧美电影  第1张

◎译 名 尚气与十环传奇 / 尚气与十戒传奇 / 尚气与十环帮传奇(港) / 尚气 / 上气 / 商奇 / 尚气与十指环传奇 / 上气与十戒传奇 / 上气:十戒传奇 / 上气与十诫传说

◎片 名 Shang-Chi and the Legend of the Ten Rings

◎年 代 2021

◎产 地 美国 / 澳大利亚

◎类 别 动作 / 科幻 / 冒险

◎语 言 英语 / 汉语普通话

◎上映日期 2021-09-03(美国) / 2021-11-12(美国网络)

◎IMDb链接 https://www.imdb.com/title/tt9376612/

◎豆瓣链接 https://movie.douban.com/subject/30394797/

◎片 长 132分钟

◎导 演 德斯汀·克里顿 Destin Cretton (id:1310608)

◎编 剧 戴夫·卡拉汉姆 Dave Callaham (id:1040838)

史蒂夫·恩格尔哈特 Steve Englehart (id:1047311)

吉姆·斯特林 Jim Starlin (id:1360715)

德斯汀·克里顿 Destin Cretton (id:1310608)

◎演 员 刘思慕 Simu Liu (id:1369905)

梁朝伟 Tony Leung Chiu Wai (id:1115918)

奥卡菲娜 Awkwafina (id:1360857)

张梦儿 Meng'er Zhang (id:1448400)

陈法拉 Fala Chen (id:1033379)

杨紫琼 Michelle Yeoh (id:1022664)

元华 Wah Yuen (id:1050240)

钱信伊 Ronny Chieng (id:1392949)

周采芹 Tsai Chin (id:1036870)

本·金斯利 Ben Kingsley (id:1054393)

蒂姆·罗斯 Tim Roth (id:1025176)

本尼迪克特·王 Benedict Wong (id:1301179)

弗罗里安·穆特鲁 Florian Munteanu (id:1403708)

安迪·黎 Andy Le (id:1456768)

斯蒂芬妮·许 Stephanie Hsu (id:1356993)

库纳尔·杜德赫克 Kunal Dudheker (id:1427483)

乔迪·朗 Jodi Long (id:1121121)

达拉斯·刘 Dallas Liu (id:1461046)

费尔南多·钱 Fernando Chien (id:1339501)

扎克·切利 Zach Cherry (id:1390628)

刘家勇 Kar-Yung Lau (id:1326224)

赫小哈 Harmonie He (id:1429406)

Lynette Curran Lynette Curran (id:1281625)

迪·布拉雷·贝克尔 Dee Bradley Baker (id:1059406)

亚历山大·陈 Alexandre Chen (id:1069959)

凯文·费奇 Kevin Feige (id:1340830)

查尔斯·纽沃斯 Charles Newirth (id:1293093)

比尔·波普 Bill Pope (id:1018460)

乌尔里希·蔡德勒 Ulrich Zeidler (id:1163351)

凯姆·巴雷特 Kym Barrett (id:1277971)

克里斯托弗·汤森 Christopher Townsend (id:1337967)

Brian Le Brian Le (id:1456759)

◎标 签 漫威 / 超级英雄 / 美国 / 2021 / 动作 / 漫威电影宇宙 / 科幻 / 奇幻

◎简 介

故事发生在《复仇者联盟4:终局之战》事件之后,尚气(刘思慕 饰)卷入秘密的十环帮组织,被迫面对自己隐秘的过去经历。

  1. ##### MediaInfo ######

  2. General

  3. Unique ID : 190933789061880508428959177028129578075 (0x8FA4829AD37CE4EDB9F713146F10DC5B)

  4. Complete name : Shang.Chi.and.the.L[email protected]BBQDDQ.COM.mkv

  5. Format : Matroska

  6. Format version : Version 4

  7. File size : 20.3 GiB

  8. Duration : 2 h 12 min

  9. Overall bit rate mode : Variable

  10. Overall bit rate : 22.0 Mb/s

  11. Encoded date : UTC 2021-11-11 11:55:24

  12. Writing application : mkvmerge v62.0.0 ('Apollo') 64-bit

  13. Writing library : libebml v1.4.2 + libmatroska v1.6.4


  14. Video

  15. ID : 1

  16. Format : HEVC

  17. Format/Info : High Efficiency Video Coding

  18. Format profile : Main [email protected]@High

  19. HDR format : SMPTE ST 2086, HDR10 compatible

  20. Codec ID : V_MPEGH/ISO/HEVC

  21. Duration : 2 h 12 min

  22. Bit rate : 17.7 Mb/s

  23. Width : 3 840 pixels

  24. Height : 1 608 pixels

  25. Display aspect ratio : 2.40:1

  26. Frame rate mode : Constant

  27. Frame rate : 23.976 (24000/1001/53354) FPS

  28. Color space : YUV

  29. Chroma subsampling : 4:2:0

  30. Bit depth : 10 bits

  31. Bits/(Pixel*Frame) : 0.119

  32. Stream size : 16.3 GiB (80%)

  33. Writing library : x265 3.3+3-g8f8e332f1+29:[Windows][#Erg`Djh#][@Yuuki] made by @Dongfangbubai

  34. Encoding settings : rc=crf / crf=18.0000 / qcomp=0.70 / qpstep=4 / stats-write=0 / stats-read=0 / vbv-maxrate=160000 / vbv-bufsize=160000 / vbv-init=0.9 / crf-max=0.0 / crf-min=0.0 / no-lossless / no-cu-lossless / aq-mode=3 / aq-strength=0.80 / cbqpoffs=-3 / crqpoffs=-3 / ipratio=1.40 / pbratio=1.30 / psy-rd=2.00 / psy-rdoq=3.00 / deblock=-1:-1 / ref=5 / limit-refs=0 / no-limit-modes / bframes=8 / b-adapt=2 / bframe-bias=0 / b-pyramid / b-intra / weightp / weightb / min-keyint=23 / max-keyint=240 / rc-lookahead=60 / gop-lookahead=0 / NTMzNTQ=uuDQuD2mJt9fsCf / scenecut=40 / hist-scenecut=0 / radl=0 / max-cu-size=32 / min-cu-size=8 / me=3 / subme=4 / merange=25 / rdoq-level=2 / rd=4 / rdpenalty=1 / dynamic-rd=0.00 / no-rd-refine / ----- / no-cutree / no-sao / no-rect / no-amp / no-open-gop / wpp / pmode / pme / no-psnr / no-ssim / nr-intra=0 / nr-inter=0 / no-constrained-intra / no-strong-intra-smoothing / max-tu-size=32 / tu-inter-depth=2 / tu-intra-depth=2 / limit-tu=0 / qg-size=32 / qpmax=69 / qpmin=0 / ----- / cpuid=533541176575 / frame-threads=6 / numa-pools=54,- / log-level=2 / input-csp=1 / input-res=3840x1608 / interlace=0 / level-idc=0 / high-tier=1 / uhd-bd=0 / no-allow-non-conformance / repeat-headers / no-aud / hrd / info / hash=0 / no-temporal-layers / lookahead-slices=0 / no-splice / no-intra-refresh / no-ssim-rd / signhide / no-tskip / max-merge=3 / temporal-mvp / no-frame-dup / no-hme / no-analyze-src-pics / no-sao-non-deblock / selective-sao=0 / no-early-skip / no-rskip / no-fast-intra / no-tskip-fast / no-splitrd-skip / zone-count=0 / no-strict-cbr / no-rc-grain / no-const-vbv / sar=0 / overscan=0 / videoformat=5 / range=0 / colorprim=9 / transfer=16 / colormatrix=9 / chromaloc=0 / display-window=0 / master-display=G(13250,34500)B(7500,3000)R(34000,16000)WP(15635,16450)L(10000000,1) / cll=0,0 / min-luma=0 / max-luma=1023 / log2-max-poc-lsb=8 / vui-timing-info / vui-hrd-info / slices=1 / no-opt-qp-pps / no-opt-ref-list-length-pps / no-multi-pass-opt-rps / scenecut-bias=0.05 / hist-threshold=0.01 / no-opt-cu-delta-qp / no-aq-motion / hdr10 / hdr10-opt / no-dhdr10-opt / no-idr-recovery-sei / analysis-reuse-level=0 / analysis-save-reuse-level=0 / analysis-load-reuse-level=0 / scale-factor=0 / refine-intra=0 / refine-inter=0 / refine-mv=1 / refine-ctu-distortion=0 / no-limit-sao / ctu-info=0 / no-lowpass-dct / refine-analysis-type=0 / copy-pic=1 / max-ausize-factor=1.0 / no-dynamic-refine / no-single-sei / no-hevc-aq / no-svt / no-field / qp-adaptation-range=1.00 / no-scenecut-aware-qpconformance-window-offsets / right=0 / bottom=0 / NTMzNTQ=

  35. Default : Yes

  36. Forced : No

  37. Color range : Limited

  38. Color primaries : BT.2020

  39. Transfer characteristics : PQ

  40. Matrix coefficients : BT.2020 non-constant

  41. Mastering display color primaries : Display P3

  42. Mastering display luminance : min: 0.0001 cd/m2, max: 1000 cd/m2


  43. Audio

  44. ID : 2

  45. Format : MLP FBA 16-ch

  46. Format/Info : Meridian Lossless Packing FBA with 16-channel presentation

  47. Commercial name : Dolby TrueHD with Dolby Atmos

  48. Codec ID : A_TRUEHD

  49. Duration : 2 h 12 min

  50. Bit rate mode : Variable

  51. Bit rate : 4 214 kb/s

  52. Maximum bit rate : 7 200 kb/s

  53. Channel(s) : 8 channels

  54. Channel layout : L R C LFE Ls Rs Lb Rb

  55. Sampling rate : 48.0 kHz

  56. Frame rate : 1 200.000 FPS (40 SPF)

  57. Compression mode : Lossless

  58. Stream size : 3.90 GiB (19%)

  59. Language : English

  60. Default : Yes

  61. Forced : No

  62. Number of dynamic objects : 13

  63. Bed channel count : 1 channel

  64. Bed channel configuration : LFE


  65. Text #1

  66. ID : 3

  67. Format : PGS

  68. Muxing mode : zlib

  69. Codec ID : S_HDMV/PGS

  70. Codec ID/Info : Picture based subtitle format used on BDs/HD-DVDs

  71. Duration : 2 h 10 min

  72. Bit rate : 12.8 kb/s

  73. Count of elements : 2171

  74. Stream size : 12.0 MiB (0%)

  75. Language : English

  76. Default : Yes

  77. Forced : No


  78. Text #2

  79. ID : 4

  80. Format : PGS

  81. Muxing mode : zlib

  82. Codec ID : S_HDMV/PGS

  83. Codec ID/Info : Picture based subtitle format used on BDs/HD-DVDs

  84. Duration : 2 h 10 min

  85. Bit rate : 11.1 kb/s

  86. Count of elements : 2566

  87. Stream size : 10.4 MiB (0%)

  88. Title : 简中

  89. Language : Chinese

  90. Default : No

  91. Forced : No


  92. Text #3

  93. ID : 5

  94. Format : PGS

  95. Muxing mode : zlib

  96. Codec ID : S_HDMV/PGS

  97. Codec ID/Info : Picture based subtitle format used on BDs/HD-DVDs

  98. Duration : 2 h 10 min

  99. Bit rate : 19.8 kb/s

  100. Count of elements : 2171

  101. Stream size : 18.5 MiB (0%)

  102. Title : 双语

  103. Language : Chinese

  104. Default : No

  105. Forced : No


  106. Menu

  107. 00:00:00.000 : :第 01 章

  108. 00:10:08.917 : :第 02 章

  109. 00:18:13.333 : :第 03 章

  110. 00:26:37.250 : :第 04 章

  111. 00:36:05.375 : :第 05 章

  112. 00:46:11.167 : :第 06 章

  113. 00:53:33.792 : :第 07 章

  114. 01:02:41.417 : :第 08 章

  115. 01:13:43.958 : :第 09 章

  116. 01:21:31.208 : :第 10 章

  117. 01:30:22.625 : :第 11 章

  118. 01:43:18.333 : :第 12 章

  119. 01:59:19.875 : :第 13 章




复制代码



文件下载


除非特别注明,本文『尚气与十环传奇[简体双语字幕].Shang.Chi.and.the.Legend.of.the.Ten.Rings.2021.UHD.2160p.x265.10bit.HDR.mUHD 20.30GB』来源于互联网机器人自动抓取,非本站原创。 浮游电影网不对本文拥有版权,如有侵犯,请联系邮箱:fuyouu#yandex.com[#换成@]投诉。我们会在15个工作日内删除。 但烦请转载时请标明出处:“本文转载于『浮游电影网』,原文地址:https://www.fuyouu.com/17731.html

评论吧骚年!

发表你的见解   

昵称*

E-mail*(建议输入,以便收到博主回复的提示邮件)

验证码*

您可以使用eMule或eMule Mod(Windows)、aMule(Win、Linux、Mac)等软件下载eD2k链接。。
eMule收藏集(.emulecollection)文件是您选中的所有链接的列表文件。eMule可以直接下载它们。
按住SHIFT键选择可以选中多个选择框。
可用文件名和大小选择器来选择文件。
文件名选择器帮您根据文件名称或后缀来选择文件。不分大小写。
符号使用:
和:空格( )、+
不包含:-
或:|
转义:一对英文引号("");
匹配开头:^
匹配结尾:$
例如:
选中所有名称中包含有“eMule”或“0.49c”字眼,但不包含有“exe”字眼的:emule|0.49c -exe
选中所有名称的开头是“eMule”,结尾是“0.49c”的:^emule 0.49c$
选中所有名称中带有“eMule 0.49c”的(必须是“eMule 0.49c”,中间没有别的字符,不能是“eMule fake 0.49c”),需要转义:"emule 0.49c"
大小选择器帮您根据文件大小选择文件。