当前位置: 首页 >> 国产电影 >> 江山美人[国粤语配音/中文字幕].An.Empress.And.the.Warriors.2008.1080p.BluRay.x265.10bit.DTS.2Audio 6.94GB >> 正文

江山美人[国粤语配音/中文字幕].An.Empress.And.the.Warriors.2008.1080p.BluRay.x265.10bit.DTS.2Audio 6.94GB

2021年11月12日 15:27:30     电影发布:来源于网络     电影分类:国产电影     评论(0)    

江山美人[国粤语配音/中文字幕].An.Empress.And.the.Warriors.2008.1080p.BluRay.x265.10bit.DTS.2Audio 6.94GB 战争片 爱情片 动作片 剧情片 国产电影  第1张

◎译 名 江山美人 / 江山·美人 / An Empress and the Warriors

◎年 代 2008

◎产 地 中国大陆 / 中国香港

◎类 别 剧情 / 动作 / 爱情 / 战争

◎语 言 粤语

◎上映日期 2008-02-09(中国大陆)

◎IMDb链接 https://www.imdb.com/title/tt1186803/

◎豆瓣评分 4.6/10 (23711人评价)

◎豆瓣链接 https://movie.douban.com/subject/2988163/

◎片 长 99分钟

◎导 演 程小东 Siu-Tung Ching (id:1280664)

◎编 剧 阮世生 James Yuen (id:1023957)

张炭 Cheung Tan (id:1313457)

秦天南 Tin Nam Chun (id:1280773)

◎演 员 黎明 Leon Lai (id:1036978)

陈慧琳 Kelly Chen (id:1050335)

甄子丹 Donnie Yen (id:1025194)

郭晓东 Xiaodong Guo (id:1274230)

寇振海 Zhenhai Kou (id:1182844)

张优 You Zhang (id:1348506)

彭志 Zhi Peng (id:1418466)

陈之辉 Zhihui Chen (id:1317555)

蒋依依 Yiyi Jiang (id:1316819)

原岛大地 Daichi Harashima (id:1307245)

谢志华 Chi-Wah Tse (id:1417403)

陈可辛 Peter Chan (id:1274300)

雷颂德 Mark Lui (id:1052286)

赵小丁 Xiaoding Zhao (id:1274347)

潘雄 Hung Poon (id:1294717)

陈祺合 Ki-hop Chan (id:1280429)

奚仲文 Chung-Man Hai (id:1275027)

吴里璐 Dora Ng (id:1289270)

何志辉 Brian Ho (id:1310960)

温皓 Hao Wen (id:1396699)

马玉成 Yuk-Sing Ma (id:1290582)

黄铭健 Ming-kin Wong (id:1331253)

◎标 签 香港 / 动作 / 古装 / 爱情 / 2008 / 战争 / 中国 / 武侠

◎简 介

燕赵大战,燕王受重伤,大将慕容雪虎(甄子丹 饰)临危受命。燕帅(郭晓冬 饰)因妒生恨,弑君谋位。大王惨死,举国悲恸,根据大王遗愿,欲传皇位于慕容将军,而燕帅多有阻挠。情急之下,大王之位只能传于手持大燕传国之宝——飞燕刃的公主燕飞儿(陈慧琳 饰),慕容将军尽忠职守,全力训练燕飞儿。不料公主离奇失踪,飞虎将军难辞其咎。燕飞儿被燕帅派出的杀手追杀并身中毒箭,幸被隐士段兰泉(黎明 饰)所救,一时难以回营。此时燕帅排除异己,欲自立为王。燕飞儿不久后回营却正值赵兵进犯之时,而燕帅为求王印,按兵不动。前有劲敌压境,后有逆臣虎视眈眈,公主带领众将生擒赵王父子,却放他们返回赵国。燕帅称王不成反受到惩罚,燕飞儿登基在即却放弃王位,传位于慕容雪虎后返回山林找段兰泉过起神仙眷侣般的生活。燕帅并没有善罢甘休,又一场血雨腥风的笼罩在风雨飘摇的大燕国上空……

◎获奖情况 (共4项)

第45届台北金马影展 (2008)

金马奖 最佳动作设计(提名)

第28届香港电影金像奖 (2009)

最佳美术指导(提名)

最佳服装造型设计(提名)

最佳原创电影歌曲(提名)

  1. ##### MediaInfo ######

  2. General

  3. Unique ID : 317646023877344980977386853742585003245 (0xEEF8661EF8C7E0565040A096D3F33CED)

  4. Complete name : An.Empress[email protected]BBQDDQ.COM.mkv

  5. Format : Matroska

  6. Format version : Version 4

  7. File size : 6.94 GiB

  8. Duration : 1 h 35 min

  9. Overall bit rate : 10.5 Mb/s

  10. Movie name : EMPRESS AND WARRIORS

  11. Encoded date : UTC 2021-11-11 03:55:29

  12. Writing application : mkvmerge v62.0.0 ('Apollo') 64-bit

  13. Writing library : libebml v1.4.2 + libmatroska v1.6.4

  14. Cover : Yes

  15. Attachments : cover.jpg


  16. Video

  17. ID : 1

  18. Format : HEVC

  19. Format/Info : High Efficiency Video Coding

  20. Format profile : Main [email protected]@Main

  21. Codec ID : V_MPEGH/ISO/HEVC

  22. Duration : 1 h 35 min

  23. Bit rate : 7 413 kb/s

  24. Width : 1 920 pixels

  25. Height : 818 pixels

  26. Display aspect ratio : 2.35:1

  27. Frame rate mode : Constant

  28. Frame rate : 24.000 FPS

  29. Color space : YUV

  30. Chroma subsampling : 4:2:0

  31. Bit depth : 10 bits

  32. Bits/(Pixel*Frame) : 0.197

  33. Stream size : 4.92 GiB (71%)

  34. Writing library : x265 3.5+2-g2b25c9ba0+45:[Windows][GCC 10.2.0][64 bit] Yuuki 10bit+8bit+12bit

  35. Encoding settings : rc=crf / crf=20.0000 / qcomp=0.60 / qpstep=4 / stats-write=0 / stats-read=0 / no-lossless / no-cu-lossless / aq-mode=3 / aq-strength=0.90 / cbqpoffs=0 / crqpoffs=0 / ipratio=1.40 / pbratio=1.30 / psy-rd=2.00 / psy-rdoq=0.00 / deblock=0:0 / ref=6 / limit-refs=1 / no-limit-modes / bframes=8 / b-adapt=2 / bframe-bias=0 / b-pyramid / b-intra / weightp / weightb / min-keyint=24 / max-keyint=240 / rc-lookahead=24 / gop-lookahead=0 / NTMzNTQ=uuDQuD2mJt9fsCf / scenecut=40 / hist-scenecut=0 / radl=0 / max-cu-size=64 / min-cu-size=8 / me=3 / subme=7 / merange=48 / rdoq-level=0 / rd=4 / rdpenalty=0 / dynamic-rd=0.00 / no-rd-refine / ----- / cutree / sao / no-rect / no-amp / no-open-gop / wpp / no-pmode / no-pme / no-psnr / no-ssim / nr-intra=0 / nr-inter=0 / no-constrained-intra / no-strong-intra-smoothing / max-tu-size=32 / tu-inter-depth=1 / tu-intra-depth=1 / limit-tu=0 / qg-size=32 / qpmax=69 / qpmin=0 / ----- / cpuid=533541111039 / frame-threads=4 / numa-pools=+ / log-level=2 / input-csp=1 / input-res=1920x818 / interlace=0 / level-idc=0 / high-tier=1 / uhd-bd=0 / no-allow-non-conformance / no-repeat-headers / aud / no-hrd / info / hash=0 / no-temporal-layers / lookahead-slices=0 / no-splice / no-intra-refresh / no-ssim-rd / signhide / no-tskip / max-merge=3 / temporal-mvp / no-frame-dup / no-hme / no-analyze-src-pics / no-sao-non-deblock / selective-sao=4 / early-skip / rskip / no-fast-intra / no-tskip-fast / no-splitrd-skip / zone-count=0 / no-strict-cbr / no-rc-grain / no-const-vbv / sar=0 / overscan=0 / videoformat=5 / range=0 / colorprim=2 / transfer=2 / colormatrix=2 / chromaloc=0 / display-window=0 / cll=0,0 / min-luma=0 / max-luma=1023 / log2-max-poc-lsb=8 / vui-timing-info / vui-hrd-info / slices=1 / no-opt-qp-pps / no-opt-ref-list-length-pps / no-multi-pass-opt-rps / scenecut-bias=0.05 / hist-threshold=0.03 / no-opt-cu-delta-qp / no-aq-motion / no-hdr10 / no-hdr10-opt / no-dhdr10-opt / no-idr-recovery-sei / analysis-reuse-level=0 / analysis-save-reuse-level=0 / analysis-load-reuse-level=0 / scale-factor=0 / refine-intra=0 / refine-inter=0 / refine-mv=1 / refine-ctu-distortion=0 / no-limit-sao / ctu-info=0 / no-lowpass-dct / refine-analysis-type=0 / copy-pic=1 / max-ausize-factor=1.0 / no-dynamic-refine / no-single-sei / no-hevc-aq / no-svt / no-field / qp-adaptation-range=1.00 / scenecut-aware-qp=0conformance-window-offsets / right=0 / bottom=0 / NTMzNTQ= / decoder-max-rate=0 / no-vbv-live-multi-pass

  36. Default : Yes

  37. Forced : No


  38. Audio #1

  39. ID : 2

  40. Format : DTS

  41. Format/Info : Digital Theater Systems

  42. Codec ID : A_DTS

  43. Duration : 1 h 35 min

  44. Bit rate mode : Constant

  45. Bit rate : 1 510 kb/s

  46. Channel(s) : 6 channels

  47. Channel layout : C L R Ls Rs LFE

  48. Sampling rate : 48.0 kHz

  49. Frame rate : 93.750 FPS (512 SPF)

  50. Bit depth : 24 bits

  51. Compression mode : Lossy

  52. Stream size : 1.00 GiB (14%)

  53. Title : Mandarin

  54. Language : Chinese

  55. Default : Yes

  56. Forced : No


  57. Audio #2

  58. ID : 3

  59. ID in the original source medium : 4353 (0x1101)

  60. Format : DTS

  61. Format/Info : Digital Theater Systems

  62. Codec ID : A_DTS

  63. Duration : 1 h 35 min

  64. Bit rate mode : Constant

  65. Bit rate : 1 509 kb/s

  66. Channel(s) : 6 channels

  67. Channel layout : C L R Ls Rs LFE

  68. Sampling rate : 48.0 kHz

  69. Frame rate : 93.750 FPS (512 SPF)

  70. Bit depth : 16 bits

  71. Compression mode : Lossy

  72. Stream size : 1.00 GiB (14%)

  73. Title : Cantonese

  74. Language : Chinese

  75. Default : No

  76. Forced : No

  77. Original source medium : Blu-ray


  78. Text #1

  79. ID : 4

  80. ID in the original source medium : 4609 (0x1201)

  81. Format : PGS

  82. Muxing mode : zlib

  83. Codec ID : S_HDMV/PGS

  84. Codec ID/Info : Picture based subtitle format used on BDs/HD-DVDs

  85. Duration : 1 h 30 min

  86. Bit rate : 22.7 kb/s

  87. Count of elements : 1499

  88. Stream size : 14.7 MiB (0%)

  89. Title : chs

  90. Language : Chinese

  91. Default : Yes

  92. Forced : No

  93. Original source medium : Blu-ray


  94. Text #2

  95. ID : 5

  96. ID in the original source medium : 4608 (0x1200)

  97. Format : PGS

  98. Muxing mode : zlib

  99. Codec ID : S_HDMV/PGS

  100. Codec ID/Info : Picture based subtitle format used on BDs/HD-DVDs

  101. Duration : 1 h 30 min

  102. Bit rate : 23.7 kb/s

  103. Count of elements : 1499

  104. Stream size : 15.3 MiB (0%)

  105. Title : cht

  106. Language : Chinese

  107. Default : No

  108. Forced : No

  109. Original source medium : Blu-ray


  110. Text #3

  111. ID : 6

  112. ID in the original source medium : 4610 (0x1202)

  113. Format : PGS

  114. Muxing mode : zlib

  115. Codec ID : S_HDMV/PGS

  116. Codec ID/Info : Picture based subtitle format used on BDs/HD-DVDs

  117. Duration : 1 h 30 min

  118. Bit rate : 29.3 kb/s

  119. Count of elements : 1499

  120. Stream size : 19.0 MiB (0%)

  121. Title : eng

  122. Language : English

  123. Default : No

  124. Forced : No

  125. Original source medium : Blu-ray


  126. Menu

  127. 00:00:00.000 : en:Chapter 01

  128. 00:16:00.000 : en:Chapter 02

  129. 00:32:00.000 : en:Chapter 03

  130. 00:48:00.000 : en:Chapter 04

  131. 01:04:00.000 : en:Chapter 05

  132. 01:20:00.000 : en:Chapter 06




文件下载


除非特别注明,本文『江山美人[国粤语配音/中文字幕].An.Empress.And.the.Warriors.2008.1080p.BluRay.x265.10bit.DTS.2Audio 6.94GB』来源于互联网机器人自动抓取,非本站原创。 浮游电影网不对本文拥有版权,如有侵犯,请联系邮箱:fuyouu#yandex.com[#换成@]投诉。我们会在15个工作日内删除。 但烦请转载时请标明出处:“本文转载于『浮游电影网』,原文地址:https://www.fuyouu.com/17725.html

评论吧骚年!

发表你的见解   

昵称*

E-mail*(建议输入,以便收到博主回复的提示邮件)

验证码*

您可以使用eMule或eMule Mod(Windows)、aMule(Win、Linux、Mac)等软件下载eD2k链接。。
eMule收藏集(.emulecollection)文件是您选中的所有链接的列表文件。eMule可以直接下载它们。
按住SHIFT键选择可以选中多个选择框。
可用文件名和大小选择器来选择文件。
文件名选择器帮您根据文件名称或后缀来选择文件。不分大小写。
符号使用:
和:空格( )、+
不包含:-
或:|
转义:一对英文引号("");
匹配开头:^
匹配结尾:$
例如:
选中所有名称中包含有“eMule”或“0.49c”字眼,但不包含有“exe”字眼的:emule|0.49c -exe
选中所有名称的开头是“eMule”,结尾是“0.49c”的:^emule 0.49c$
选中所有名称中带有“eMule 0.49c”的(必须是“eMule 0.49c”,中间没有别的字符,不能是“eMule fake 0.49c”),需要转义:"emule 0.49c"
大小选择器帮您根据文件大小选择文件。