当前位置: 首页 >> 日韩电影 >> 0.5毫米[中文字幕].0.5.Mm.2014.WEBRip.1080p.x265.10bit.DDP/5.1.MNHD 7.98GB >> 正文

0.5毫米[中文字幕].0.5.Mm.2014.WEBRip.1080p.x265.10bit.DDP/5.1.MNHD 7.98GB

2021年11月12日 15:26:04     电影发布:来源于网络     电影分类:日韩电影     评论(0)    

0.5毫米[中文字幕].0.5.Mm.2014.WEBRip.1080p.x265.10bit.DDP/5.1.MNHD 7.98GB 剧情片 日韩电影  第1张

◎译 名 0.5毫米 / 0.5mm

◎片 名 0.5ミリ

◎年 代 2014

◎产 地 日本

◎类 别 剧情

◎语 言 日语

◎上映日期 2014-11-08(日本)

◎IMDb链接 https://www.imdb.com/title/tt3825360/

◎豆瓣评分 8.3/10 (25357人评价)

◎豆瓣链接 https://movie.douban.com/subject/21767183/

◎片 长 196分钟

◎导 演 安藤桃子 Momoko And? (id:1317074)

◎编 剧 安藤桃子 Momoko And? (id:1317074)

◎演 员 安藤樱 Sakura And? (id:1274350)

织本顺吉 Junkichi Orimoto (id:1008747)

东出昌大 Masahiro Higashide (id:1324960)

柳原晴郎 Bengaru (id:1065424)

角替和枝 Kazue Tsunogae (id:1030337)

浅田美代子 Miyoko Asada (id:1006830)

柄本明 Akira Emoto (id:1042056)

草笛光子 Mitsuko Kusabue (id:1031254)

津川雅彦 Masahiko Tsugawa (id:1016987)

◎标 签 日本 / 安藤樱 / 日本电影 / 人性 / 剧情 / 2014 / 日影 / 温情

◎简 介

在某老人护理机构供职的山岸佐和(安藤樱 饰)长久以来一直照顾生活不能自理的老人昭三(织本顺吉 饰)。某天昭三的女儿向其提出一个匪夷所思的要求,虽然有些勉强,佐和还是应承了下来,谁曾想这一决定竟彻底改变了她的命运。突如其来的灾难让佐和丢掉了工作,进而流落街头。在四处闲逛的时候,她先后邂逅了康夫(井上龙夫 饰)、阿茂(坂田利夫 饰)、义男(津川雅彦 饰)等有着各种各样怪癖和坏毛病的老年人。佐和就像恶意满满的魔女,不由分说闯入老人们的生活。她霸道地纠正老人们的恶习,却也为他们带来了久违的关怀……

本片根据导演安藤桃子依据自身护理经验撰写的小说改编。

◎获奖情况 (共8项)

第38届日本电影学院奖 (2015)

最佳女主角(提名)

└──安藤樱 (id:1274350)

第18届上海国际电影节 (2015)

亚洲新人奖 最佳影片(提名)

亚洲新人奖 最佳导演

└──安藤桃子 (id:1317074)

亚洲新人奖 最佳编剧(提名)

└──安藤桃子 (id:1317074)

第39届报知映画赏 (2014)

最佳影片

└──安藤桃子 (id:1317074)

最佳男配角

└──津川雅彦 (id:1016987)

第2届豆瓣电影年度榜单 (2015)

评分最高的日本电影(提名)

第6届豆瓣电影鑫像奖 (2016)

鑫豆单元 最佳日本电影(提名)

  1. ##### MediaInfo ######

  2. General

  3. Unique ID : 38168164086743292817001819670297184578 (0x1CB6EBC78DB0CA01087D5F2B5D500942)

  4. Complete name : [email protected]M.mkv

  5. Format : Matroska

  6. Format version : Version 4

  7. File size : 7.98 GiB

  8. Duration : 3 h 17 min

  9. Overall bit rate : 5 798 kb/s

  10. Movie name : 0.5 Mm 2014 WEBRip 1080p x265 10bit DDP+5.1 [email protected]

  11. Encoded date : UTC 2021-11-11 04:12:20

  12. Writing application : mkvmerge v56.1.0 ('My Friend') 64-bit

  13. Writing library : libebml v1.4.2 + libmatroska v1.6.4


  14. Video

  15. ID : 1

  16. Format : HEVC

  17. Format/Info : High Efficiency Video Coding

  18. Format profile : Main [email protected]@High

  19. Codec ID : V_MPEGH/ISO/HEVC

  20. Duration : 3 h 17 min

  21. Bit rate : 5 156 kb/s

  22. Width : 1 916 pixels

  23. Height : 1 040 pixels

  24. Display aspect ratio : 1.85:1

  25. Frame rate mode : Constant

  26. Frame rate : 23.976 (24000/1001/53354) FPS

  27. Color space : YUV

  28. Chroma subsampling : 4:2:0

  29. Bit depth : 10 bits

  30. Bits/(Pixel*Frame) : 0.108

  31. Stream size : 7.10 GiB (89%)

  32. Writing library : x265 3.5+9-bf91444e0:[Windows][MSVC 1928][64 bit] 10bit

  33. Encoding settings : cpuid=533541111039 / frame-threads=3 / numa-pools=12 / wpp / pmode / no-pme / no-psnr / no-ssim / log-level=2 / input-csp=1 / input-res=1916x1040 / interlace=0 / total-frames=283512 / level-idc=0 / high-tier=1 / uhd-bd=0 / ref=6 / no-allow-non-conformance / no-repeat-headers / annexb / no-aud / no-eob / no-eos / no-hrd / info / hash=0 / no-temporal-layers / no-open-gop / min-keyint=1 / keyint=250 / gop-lookahead=0 / bframes=8 / b-adapt=2 / b-pyramid / bframe-bias=0 / rc-lookahead=100 / lookahead-slices=0 / NTMzNTQ=uuDQuD2mJt9fsCf / scenecut=40 / hist-scenecut=0 / radl=0 / no-splice / no-intra-refresh / ctu=32 / min-cu-size=8 / no-rect / no-amp / max-tu-size=32 / tu-inter-depth=4 / tu-intra-depth=4 / limit-tu=0 / rdoq-level=2 / dynamic-rd=0.00 / no-ssim-rd / signhide / no-tskip / nr-intra=0 / nr-inter=0 / no-constrained-intra / strong-intra-smoothing / max-merge=5 / limit-refs=0 / no-limit-modes / me=3 / subme=5 / merange=57 / temporal-mvp / no-frame-dup / no-hme / weightp / weightb / no-analyze-src-pics / deblock=-3:-3 / no-sao / no-sao-non-deblock / rd=3 / selective-sao=0 / no-early-skip / no-rskip / no-fast-intra / no-tskip-fast / no-cu-lossless / b-intra / no-splitrd-skip / rdpenalty=0 / psy-rd=1.50 / psy-rdoq=1.00 / no-rd-refine / no-lossless / cbqpoffs=-2 / crqpoffs=-2 / rc=crf / crf=24.0 / qcomp=0.60 / qpstep=4 / stats-write=0 / stats-read=0 / vbv-maxrate=160000 / vbv-bufsize=160000 / vbv-init=0.9 / min-vbv-fullness=50.0 / max-vbv-fullness=80.0 / crf-max=0.0 / crf-min=0.0 / ipratio=1.30 / pbratio=1.20 / aq-mode=4 / aq-strength=1.00 / no-cutree / zone-count=0 / no-strict-cbr / qg-size=8 / no-rc-grain / qpmax=69 / qpmin=0 / no-const-vbv / sar=0 / overscan=0 / videoformat=5 / range=0 / colorprim=1 / transfer=1 / colormatrix=1 / chromaloc=0 / display-window=0 / cll=0,0 / min-luma=0 / max-luma=1023 / log2-max-poc-lsb=8 / vui-timing-info / vui-hrd-info / slices=1 / no-opt-qp-pps / no-opt-ref-list-length-pps / no-multi-pass-opt-rps / scenecut-bias=0.05 / hist-threshold=0.03 / no-opt-cu-delta-qp / no-aq-motion / no-hdr10 / no-hdr10-opt / no-dhdr10-opt / no-idr-recovery-sei / analysis-reuse-level=0 / analysis-save-reuse-level=0 / analysis-load-reuse-level=0 / scale-factor=0 / refine-intra=0 / refine-inter=0 / refine-mv=1 / refine-ctu-distortion=0 / no-limit-sao / ctu-info=0 / no-lowpass-dct / refine-analysis-type=0 / copy-pic=1 / max-ausize-factor=1.0 / no-dynamic-refine / no-single-sei / no-hevc-aq / no-svt / no-field / qp-adaptation-range=1.00 / scenecut-aware-qp=0conformance-window-offsets / right=0 / bottom=0 / NTMzNTQ= / decoder-max-rate=0 / no-vbv-live-multi-pass

  34. Default : Yes

  35. Forced : No

  36. Color range : Limited

  37. Color primaries : BT.709

  38. Transfer characteristics : BT.709

  39. Matrix coefficients : BT.709


  40. Audio

  41. ID : 2

  42. Format : E-AC-3

  43. Format/Info : Enhanced AC-3

  44. Commercial name : Dolby Digital Plus

  45. Codec ID : A_EAC3

  46. Duration : 3 h 17 min

  47. Bit rate mode : Constant

  48. Bit rate : 640 kb/s

  49. Channel(s) : 6 channels

  50. Channel layout : L R C LFE Ls Rs

  51. Sampling rate : 48.0 kHz

  52. Frame rate : 31.250 FPS (1536 SPF)

  53. Compression mode : Lossy

  54. Stream size : 902 MiB (11%)

  55. Language : Japanese

  56. Service kind : Complete Main

  57. Default : Yes

  58. Forced : No


  59. Text

  60. ID : 3

  61. Format : UTF-8

  62. Codec ID : S_TEXT/UTF8

  63. Codec ID/Info : UTF-8 Plain Text

  64. Duration : 3 h 12 min

  65. Bit rate : 23 b/s

  66. Count of elements : 1398

  67. Stream size : 33.1 KiB (0%)

  68. Title : CHS

  69. Language : Chinese

  70. Default : Yes

  71. Forced : No




复制代码



文件下载


除非特别注明,本文『0.5毫米[中文字幕].0.5.Mm.2014.WEBRip.1080p.x265.10bit.DDP/5.1.MNHD 7.98GB』来源于互联网机器人自动抓取,非本站原创。 浮游电影网不对本文拥有版权,如有侵犯,请联系邮箱:fuyouu#yandex.com[#换成@]投诉。我们会在15个工作日内删除。 但烦请转载时请标明出处:“本文转载于『浮游电影网』,原文地址:https://www.fuyouu.com/17724.html

评论吧骚年!

发表你的见解   

昵称*

E-mail*(建议输入,以便收到博主回复的提示邮件)

验证码*

您可以使用eMule或eMule Mod(Windows)、aMule(Win、Linux、Mac)等软件下载eD2k链接。。
eMule收藏集(.emulecollection)文件是您选中的所有链接的列表文件。eMule可以直接下载它们。
按住SHIFT键选择可以选中多个选择框。
可用文件名和大小选择器来选择文件。
文件名选择器帮您根据文件名称或后缀来选择文件。不分大小写。
符号使用:
和:空格( )、+
不包含:-
或:|
转义:一对英文引号("");
匹配开头:^
匹配结尾:$
例如:
选中所有名称中包含有“eMule”或“0.49c”字眼,但不包含有“exe”字眼的:emule|0.49c -exe
选中所有名称的开头是“eMule”,结尾是“0.49c”的:^emule 0.49c$
选中所有名称中带有“eMule 0.49c”的(必须是“eMule 0.49c”,中间没有别的字符,不能是“eMule fake 0.49c”),需要转义:"emule 0.49c"
大小选择器帮您根据文件大小选择文件。