当前位置: 首页 >> 国产电影 >> 烧烤之王[国语配音/中文字幕].The.king.of.BBQ.2021.1080p.WEB-DL.H264.DDP2.0 1.11GB >> 正文

烧烤之王[国语配音/中文字幕].The.king.of.BBQ.2021.1080p.WEB-DL.H264.DDP2.0 1.11GB

2021年11月12日 15:24:49     电影发布:来源于网络     电影分类:国产电影     评论(0)    

烧烤之王[国语配音/中文字幕].The.king.of.BBQ.2021.1080p.WEB DL.H264.DDP2.0 1.11GB 喜剧片 国产电影  第1张

◎译 名 烧烤之王

◎年 代 2021

◎产 地 中国大陆

◎类 别 喜剧

◎语 言 汉语普通话

◎上映日期 2021-11-12(中国大陆网络)

◎IMDb链接 https://www.imdb.com/title//

◎豆瓣链接 https://movie.douban.com/subject/35402760/

◎片 长 85分钟

◎导 演 崔志佳 Zhijia Cui (id:1343941)

◎演 员 崔志佳 Zhijia Cui (id:1343941)

张琪 Qi Zhang (id:1314723)

郭祥鹏 Xiangpeng Guo (id:1424404)

李昆鹰 Kunying Li (id:1420121)

何雨桐 Yutong He (id:1402824)

◎标 签 国产喜剧 / 2022 / 承包了我一天的笑点 / 喜剧 / 中国大陆 / 电影 / 思考 / 待定

◎简 介

李炎燚(崔志佳 饰)为帮助老板郑言(郭祥鹏 饰)解决其父子之间的矛盾,意外走上了经营烧烤店的道路,在和郑能量(张琪 饰)的斗争中,他慢慢懂得了烧烤的温暖,选择继续经营烧烤店,而郑言(郭祥鹏 饰)父子之间的矛盾也逐渐化解……

  1. ##### MediaInfo ######

  2. General

  3. Unique ID : 333788709680587844419856206628871714112 (0xFB1D5DFABD295F266AFB5ECD1B67B540)

  4. Complete name : 烧烤之王[email protected]mkv

  5. Format : Matroska

  6. Format version : Version 4

  7. File size : 1.11 GiB

  8. Duration : 1 h 21 min

  9. Overall bit rate : 1 944 kb/s

  10. Encoded date : UTC 2021-11-11 04:54:00

  11. Writing application : mkvmerge v56.1.0 ('My Friend') 64-bit

  12. Writing library : libebml v1.4.2 + libmatroska v1.6.4


  13. Video

  14. ID : 1

  15. Format : AVC

  16. Format/Info : Advanced Video Codec

  17. Format profile : [email protected]

  18. Format settings : CABAC / 4 Ref Frames

  19. Format settings, CABAC : Yes

  20. Format settings, Reference frames : 4 frames

  21. Codec ID : V_MPEG4/ISO/AVC

  22. Duration : 1 h 21 min

  23. Bit rate : 1 686 kb/s

  24. Width : 1 920 pixels

  25. Height : 816 pixels

  26. Display aspect ratio : 2.35:1

  27. Frame rate mode : Constant

  28. Frame rate : 25.000 FPS

  29. Color space : YUV

  30. Chroma subsampling : 4:2:0

  31. Bit depth : 8 bits

  32. Scan type : Progressive

  33. Bits/(Pixel*Frame) : 0.043

  34. Stream size : 987 MiB (87%)

  35. Writing library : ptw-1.0.136 rcm-adapt vs-93 vwk

  36. Default : Yes

  37. Forced : No

  38. Color range : Limited

  39. Color primaries : BT.709

  40. Transfer characteristics : BT.709

  41. Matrix coefficients : BT.709


  42. Audio

  43. ID : 2

  44. Format : E-AC-3

  45. Format/Info : Enhanced AC-3

  46. Commercial name : Dolby Digital Plus

  47. Codec ID : A_EAC3

  48. Duration : 1 h 21 min

  49. Bit rate mode : Constant

  50. Bit rate : 256 kb/s

  51. Channel(s) : 2 channels

  52. Channel layout : L R

  53. Sampling rate : 48.0 kHz

  54. Frame rate : 31.250 FPS (1536 SPF)

  55. Compression mode : Lossy

  56. Stream size : 150 MiB (13%)

  57. Service kind : Complete Main

  58. Default : Yes

  59. Forced : No




复制代码



文件下载


除非特别注明,本文『烧烤之王[国语配音/中文字幕].The.king.of.BBQ.2021.1080p.WEB-DL.H264.DDP2.0 1.11GB』来源于互联网机器人自动抓取,非本站原创。 浮游电影网不对本文拥有版权,如有侵犯,请联系邮箱:fuyouu#yandex.com[#换成@]投诉。我们会在15个工作日内删除。 但烦请转载时请标明出处:“本文转载于『浮游电影网』,原文地址:https://www.fuyouu.com/17723.html

评论吧骚年!

发表你的见解   

昵称*

E-mail*(建议输入,以便收到博主回复的提示邮件)

验证码*

您可以使用eMule或eMule Mod(Windows)、aMule(Win、Linux、Mac)等软件下载eD2k链接。。
eMule收藏集(.emulecollection)文件是您选中的所有链接的列表文件。eMule可以直接下载它们。
按住SHIFT键选择可以选中多个选择框。
可用文件名和大小选择器来选择文件。
文件名选择器帮您根据文件名称或后缀来选择文件。不分大小写。
符号使用:
和:空格( )、+
不包含:-
或:|
转义:一对英文引号("");
匹配开头:^
匹配结尾:$
例如:
选中所有名称中包含有“eMule”或“0.49c”字眼,但不包含有“exe”字眼的:emule|0.49c -exe
选中所有名称的开头是“eMule”,结尾是“0.49c”的:^emule 0.49c$
选中所有名称中带有“eMule 0.49c”的(必须是“eMule 0.49c”,中间没有别的字符,不能是“eMule fake 0.49c”),需要转义:"emule 0.49c"
大小选择器帮您根据文件大小选择文件。