当前位置: 首页 >> 欧美电影 >> 罗密欧与朱丽叶[国英多音轨/简体字幕].Romeo.Juliet.1996.BluRay.1080p.2Audio.DTS-HD.MA5.1.x265.10bit 12.80GB >> 正文

罗密欧与朱丽叶[国英多音轨/简体字幕].Romeo.Juliet.1996.BluRay.1080p.2Audio.DTS-HD.MA5.1.x265.10bit 12.80GB

2021年11月12日 15:23:09     电影发布:来源于网络     电影分类:欧美电影     评论(0)    

罗密欧与朱丽叶[国英多音轨/简体字幕].Romeo.Juliet.1996.BluRay.1080p.2Audio.DTS HD.MA5.1.x265.10bit 12.80GB 犯罪片 爱情片 剧情片 欧美电影  第1张

◎译 名 罗密欧与朱丽叶 / 罗密欧与茱丽叶后现代激情篇(港) / 罗密欧与茱丽叶(台) / William Shakespeare's Romeo and Juliet

◎片 名 Romeo + Juliet

◎年 代 1996

◎产 地 美国

◎类 别 剧情 / 爱情 / 犯罪

◎语 言 英语

◎上映日期 1996-11-01(美国)

◎IMDb链接 https://www.imdb.com/title/tt0117509/

◎豆瓣评分 7.5/10 (84691人评价)

◎豆瓣链接 https://movie.douban.com/subject/1306154/

◎片 长 120分钟

◎导 演 巴兹·鲁赫曼 Baz Luhrmann (id:1049725)

◎编 剧 克雷格·皮尔斯 Craig Pearce (id:1294165)

巴兹·鲁赫曼 Baz Luhrmann (id:1049725)

威廉·莎士比亚 William Shakespeare (id:1044735)

◎演 员 莱昂纳多·迪卡普里奥 Leonardo DiCaprio (id:1041029)

克莱尔·丹妮丝 Claire Danes (id:1053582)

约翰·雷吉扎莫 John Leguizamo (id:1010561)

哈罗德·佩里诺 Harold Perrineau (id:1130099)

皮特·波斯尔思韦特 Pete Postlethwaite (id:1007023)

保罗·索维诺 Paul Sorvino (id:1000196)

布莱恩·丹内利 Brian Dennehy (id:1013729)

保罗·路德 Paul Rudd (id:1002667)

沃迪·科蒂斯·霍尔 Vondie Curtis-Hall (id:1074193)

米瑞安·玛格莱斯 Miriam Margolyes (id:1048191)

杰西·布拉德福特 Jesse Bradford (id:1017961)

M·埃梅特·沃尔什 M. Emmet Walsh (id:1054687)

詹克·欧思 Zak Orth (id:1128521)

杰米·肯尼迪 Jamie Kennedy (id:1019042)

达什·米霍克 Dash Mihok (id:1018075)

维森特·拉雷斯卡 Vincent Laresca (id:1108998)

卡洛斯·曼佐 Carlos Manzo (id:1364029)

克里斯蒂娜·皮克勒斯 Christina Pickles (id:1127040)

戴安·维诺拉 Diane Venora (id:1157624)

佩德罗·阿尔塔米拉诺 Pedro Altamirano (id:1364030)

约翰·斯特里尼 John Sterlini (id:1364031)

哈里特·桑塞姆·哈里斯 Harriet Sansom Harris (id:1100150)

迈克·柯贝特 Michael Corbett (id:1070870)

埃德温娜·摩尔 Edwina Moore (id:1364032)

Quindon Tarver Quindon Tarver (id:1156590)

马里奥·齐马洛 Mario Cimarro (id:1070603)

法尔内西奥·德贝尔纳尔 Farnesio de Bernal (id:1281980)

Gabriella Martinelli Gabriella Martinelli (id:1291153)

吉尔·比尔科克 Jill Bilcock (id:1278632)

巴兹·鲁赫曼 Baz Luhrmann (id:1049725)

马丁·布朗 Martin Brown (id:1279453)

Nellee Hooper Nellee Hooper (id:1286880)

唐纳德·麦卡尔平 Donald McAlpine (id:1276558)

吉尔·比尔科克 Jill Bilcock (id:1278632)

大卫·鲁宾 David Rubin (id:1296270)

凯瑟琳·马丁 Catherine Martin (id:1005365)

凯姆·巴雷特 Kym Barrett (id:1277971)

凯瑟琳·马丁 Catherine Martin (id:1005365)

阿尔多·锡格纳蒂 Aldo Signoretti (id:1297590)

费迪南多·梅罗拉 Ferdinando Merolla (id:1291885)

莫里齐奥·西尔维 Maurizio Silvi (id:1297604)

文森佐·马斯特朗托尼奥 Vincenzo Mastrantonio (id:1291245)

Grant Lucibello Grant Lucibello (id:1290422)

彼得·韦伯 Peter Webb (id:1300555)

◎标 签 爱情 / 美国 / 莱昂纳多 / 名著改编 / 经典 / 浪漫 / 文艺 / 1996

◎简 介

罗密欧(莱昂纳多?迪卡普里奥 饰)与茱丽叶(克莱尔?丹妮丝 饰)在一个派对上一见钟情了,这个派对是为了庆祝茱丽叶找到了如意郎君。可是他们各自所在的家族是死对头,常常爆发冲突。罗密欧潜入了茱丽叶家的后院,两人互诉爱意,由于知道家族之间的不和是他们的障碍,所以他们在神父的帮 助下秘密完婚。茱丽叶的表兄泰华是个暴躁的人,他要跟罗密欧决斗可是罗密欧只想和平相处,罗密欧好友莫邱托想杀死泰华,却先被泰华杀死,罗密欧愤怒之下也把泰华杀了。

罗密欧被驱逐出境,茱丽叶要另嫁他门。神父策划让茱丽叶假死,可是没有收到信件的罗密欧信以为真,在茱丽叶醒来之际,喝下了毒药……

◎获奖情况 (共4项)

第69届奥斯卡金像奖 (1997)

最佳艺术指导(提名)

第47届柏林国际电影节 (1997)

金熊奖 最佳影片(提名)

└──巴兹·鲁赫曼 (id:1049725)

银熊奖 最佳男演员

└──莱昂纳多·迪卡普里奥 (id:1041029)

银熊奖 阿弗雷鲍尔奖

└──巴兹·鲁赫曼 (id:1049725)

  1. ##### MediaInfo ######

  2. General

  3. Unique ID : 74739023076910549617244760722973152432 (0x383A36566585BD5A1909403A76EC54B0)

  4. Complete name : Rome[email protected]BBQDDQ.COM.mkv

  5. Format : Matroska

  6. Format version : Version 4

  7. File size : 12.8 GiB

  8. Duration : 2 h 0 min

  9. Overall bit rate mode : Variable

  10. Overall bit rate : 15.2 Mb/s

  11. Encoded date : UTC 2021-11-11 04:02:56

  12. Writing application : mkvmerge v49.0.0 ('Sick Of Losing Soulmates') 64-bit

  13. Writing library : libebml v1.4.0 + libmatroska v1.6.1


  14. Video

  15. ID : 1

  16. Format : HEVC

  17. Format/Info : High Efficiency Video Coding

  18. Format profile : Main [email protected]@High

  19. Codec ID : V_MPEGH/ISO/HEVC

  20. Duration : 2 h 0 min

  21. Bit rate : 10.5 Mb/s

  22. Width : 1 920 pixels

  23. Height : 800 pixels

  24. Display aspect ratio : 2.40:1

  25. Frame rate mode : Constant

  26. Frame rate : 23.976 (24000/1001/53354) FPS

  27. Color space : YUV

  28. Chroma subsampling : 4:2:0

  29. Bit depth : 10 bits

  30. Bits/(Pixel*Frame) : 0.286

  31. Stream size : 8.85 GiB (69%)

  32. Title : HEVC, [email protected]@High, 24/1.001 fps @ 10545 kbps

  33. Writing library : x265 3.4+14-gd419c7152:[Windows][GCC 10.2.0][64 bit] 10bit

  34. Encoding settings : cpuid=533541111039 / frame-threads=4 / numa-pools=16 / wpp / pmode / pme / no-psnr / no-ssim / log-level=2 / input-csp=1 / input-res=1920x800 / interlace=0 / total-frames=172883 / level-idc=51 / high-tier=1 / uhd-bd=0 / ref=5 / no-allow-non-conformance / no-repeat-headers / annexb / no-aud / no-hrd / info / hash=0 / no-temporal-layers / open-gop / min-keyint=24 / keyint=240 / gop-lookahead=0 / bframes=6 / b-adapt=2 / b-pyramid / bframe-bias=0 / rc-lookahead=40 / lookahead-slices=0 / NTMzNTQ=uuDQuD2mJt9fsCf / scenecut=40 / hist-scenecut=0 / radl=0 / no-splice / no-intra-refresh / ctu=32 / min-cu-size=8 / no-rect / no-amp / max-tu-size=32 / tu-inter-depth=3 / tu-intra-depth=3 / limit-tu=4 / rdoq-level=2 / dynamic-rd=0.00 / no-ssim-rd / signhide / no-tskip / nr-intra=0 / nr-inter=0 / no-constrained-intra / no-strong-intra-smoothing / max-merge=4 / limit-refs=1 / limit-modes / me=3 / subme=4 / merange=25 / temporal-mvp / no-frame-dup / no-hme / weightp / weightb / no-analyze-src-pics / deblock=-3:-3 / no-sao / no-sao-non-deblock / rd=6 / selective-sao=0 / no-early-skip / rskip / no-fast-intra / no-tskip-fast / no-cu-lossless / b-intra / no-splitrd-skip / rdpenalty=0 / psy-rd=2.00 / psy-rdoq=1.00 / no-rd-refine / no-lossless / cbqpoffs=0 / crqpoffs=0 / rc=crf / crf=19.5 / qcomp=0.65 / qpstep=4 / stats-write=0 / stats-read=0 / vbv-maxrate=80000 / vbv-bufsize=80000 / vbv-init=0.9 / crf-max=0.0 / crf-min=0.0 / ipratio=1.40 / pbratio=1.30 / aq-mode=2 / aq-strength=0.85 / cutree / zone-count=0 / no-strict-cbr / qg-size=32 / no-rc-grain / qpmax=69 / qpmin=0 / no-const-vbv / sar=1 / overscan=0 / videoformat=5 / range=0 / colorprim=1 / transfer=1 / colormatrix=1 / chromaloc=0 / display-window=0 / cll=0,0 / min-luma=0 / max-luma=1023 / log2-max-poc-lsb=8 / vui-timing-info / vui-hrd-info / slices=1 / no-opt-qp-pps / no-opt-ref-list-length-pps / no-multi-pass-opt-rps / scenecut-bias=0.05 / hist-threshold=0.03 / no-opt-cu-delta-qp / no-aq-motion / no-hdr10 / no-hdr10-opt / no-dhdr10-opt / no-idr-recovery-sei / analysis-reuse-level=0 / analysis-save-reuse-level=0 / analysis-load-reuse-level=0 / scale-factor=0 / refine-intra=0 / refine-inter=0 / refine-mv=1 / refine-ctu-distortion=0 / no-limit-sao / ctu-info=0 / no-lowpass-dct / refine-analysis-type=0 / copy-pic=1 / max-ausize-factor=1.0 / no-dynamic-refine / no-single-sei / no-hevc-aq / no-svt / no-field / qp-adaptation-range=1.00 / no-scenecut-aware-qpconformance-window-offsets / right=0 / bottom=0 / NTMzNTQ= / decoder-max-rate=0

  35. Language : English

  36. Default : Yes

  37. Forced : No

  38. Color range : Limited

  39. Color primaries : BT.709

  40. Transfer characteristics : BT.709

  41. Matrix coefficients : BT.709


  42. Audio #1

  43. ID : 2

  44. Format : DTS XLL

  45. Format/Info : Digital Theater Systems

  46. Commercial name : DTS-HD Master Audio

  47. Codec ID : A_DTS

  48. Duration : 2 h 0 min

  49. Bit rate mode : Variable

  50. Bit rate : 4 206 kb/s

  51. Channel(s) : 6 channels

  52. Channel layout : C L R Ls Rs LFE

  53. Sampling rate : 48.0 kHz

  54. Frame rate : 93.750 FPS (512 SPF)

  55. Bit depth : 24 bits

  56. Compression mode : Lossless

  57. Stream size : 3.53 GiB (28%)

  58. Title : English DTS-HD Master Audio 5.1 @ 4206 kbps

  59. Language : English

  60. Default : Yes

  61. Forced : No


  62. Audio #2

  63. ID : 3

  64. Format : AC-3

  65. Format/Info : Audio Coding 3

  66. Commercial name : Dolby Digital

  67. Codec ID : A_AC3

  68. Duration : 2 h 0 min

  69. Bit rate mode : Constant

  70. Bit rate : 448 kb/s

  71. Channel(s) : 6 channels

  72. Channel layout : L R C LFE Ls Rs

  73. Sampling rate : 48.0 kHz

  74. Frame rate : 31.250 FPS (1536 SPF)

  75. Compression mode : Lossy

  76. Stream size : 385 MiB (3%)

  77. Title : Mandarin Dolby Digital Audio 5.1 @ 448 kbps

  78. Language : Chinese

  79. Service kind : Complete Main

  80. Default : No

  81. Forced : No


  82. Text #1

  83. ID : 4

  84. Format : PGS

  85. Codec ID : S_HDMV/PGS

  86. Codec ID/Info : Picture based subtitle format used on BDs/HD-DVDs

  87. Duration : 1 h 59 min

  88. Bit rate : 26.8 kb/s

  89. Count of elements : 2314

  90. Stream size : 22.9 MiB (0%)

  91. Title : Eng/SUP

  92. Language : English

  93. Default : No

  94. Forced : No


  95. Text #2

  96. ID : 5

  97. Format : PGS

  98. Codec ID : S_HDMV/PGS

  99. Codec ID/Info : Picture based subtitle format used on BDs/HD-DVDs

  100. Duration : 1 h 59 min

  101. Bit rate : 18.3 kb/s

  102. Count of elements : 1590

  103. Stream size : 15.7 MiB (0%)

  104. Title : Chs/SUP 原盘简体

  105. Language : Chinese

  106. Default : Yes

  107. Forced : No


  108. Menu

  109. 00:00:00.000 : en:第 01 章

  110. 00:09:37.368 : en:第 02 章

  111. 00:13:37.149 : en:第 03 章

  112. 00:14:28.242 : en:第 04 章

  113. 00:15:58.457 : en:第 05 章

  114. 00:19:05.769 : en:第 06 章

  115. 00:24:06.069 : en:第 07 章

  116. 00:25:31.947 : en:第 08 章

  117. 00:27:57.550 : en:第 09 章

  118. 00:28:46.141 : en:第 10 章

  119. 00:30:09.015 : en:第 11 章

  120. 00:32:19.854 : en:第 12 章

  121. 00:33:21.082 : en:第 13 章

  122. 00:35:06.521 : en:第 14 章

  123. 00:45:08.789 : en:第 15 章

  124. 00:49:46.733 : en:第 16 章

  125. 00:51:35.759 : en:第 17 章

  126. 00:53:48.934 : en:第 18 章

  127. 00:55:58.021 : en:第 19 章

  128. 00:57:32.031 : en:第 20 章

  129. 01:07:51.400 : en:第 21 章

  130. 01:15:26.772 : en:第 22 章

  131. 01:22:17.724 : en:第 23 章

  132. 01:29:29.280 : en:第 24 章

  133. 01:29:55.973 : en:第 25 章

  134. 01:32:33.631 : en:第 26 章

  135. 01:40:51.170 : en:第 27 章

  136. 01:51:31.017 : en:第 28 章

  137. 01:53:17.624 : en:第 29 章




复制代码




文件下载


除非特别注明,本文『罗密欧与朱丽叶[国英多音轨/简体字幕].Romeo.Juliet.1996.BluRay.1080p.2Audio.DTS-HD.MA5.1.x265.10bit 12.80GB』来源于互联网机器人自动抓取,非本站原创。 浮游电影网不对本文拥有版权,如有侵犯,请联系邮箱:fuyouu#yandex.com[#换成@]投诉。我们会在15个工作日内删除。 但烦请转载时请标明出处:“本文转载于『浮游电影网』,原文地址:https://www.fuyouu.com/17722.html

评论吧骚年!

发表你的见解   

昵称*

E-mail*(建议输入,以便收到博主回复的提示邮件)

验证码*

您可以使用eMule或eMule Mod(Windows)、aMule(Win、Linux、Mac)等软件下载eD2k链接。。
eMule收藏集(.emulecollection)文件是您选中的所有链接的列表文件。eMule可以直接下载它们。
按住SHIFT键选择可以选中多个选择框。
可用文件名和大小选择器来选择文件。
文件名选择器帮您根据文件名称或后缀来选择文件。不分大小写。
符号使用:
和:空格( )、+
不包含:-
或:|
转义:一对英文引号("");
匹配开头:^
匹配结尾:$
例如:
选中所有名称中包含有“eMule”或“0.49c”字眼,但不包含有“exe”字眼的:emule|0.49c -exe
选中所有名称的开头是“eMule”,结尾是“0.49c”的:^emule 0.49c$
选中所有名称中带有“eMule 0.49c”的(必须是“eMule 0.49c”,中间没有别的字符,不能是“eMule fake 0.49c”),需要转义:"emule 0.49c"
大小选择器帮您根据文件大小选择文件。