当前位置: 首页 >> 欧美电影 >> 我们梦中见[中文字幕].I'll.See.You.in.My.Dreams.2015.1080p.BluRay.x265.10bit.DTS 6.65GB >> 正文

我们梦中见[中文字幕].I'll.See.You.in.My.Dreams.2015.1080p.BluRay.x265.10bit.DTS 6.65GB

2021年11月12日 15:15:38     电影发布:来源于网络     电影分类:欧美电影     评论(0)    

我们梦中见[中文字幕].Ill.See.You.in.My.Dreams.2015.1080p.BluRay.x265.10bit.DTS 6.65GB 喜剧片 剧情片 欧美电影  第1张

◎译 名 我们梦中见 / 黄昏情人梦

◎片 名 I'll See You in My Dreams

◎年 代 2015

◎产 地 美国

◎类 别 剧情 / 喜剧

◎语 言 英语

◎上映日期 2015-05-15(美国)

◎IMDb链接 https://www.imdb.com/title/tt3236120/

◎豆瓣评分 7.6/10 (2495人评价)

◎豆瓣链接 https://movie.douban.com/subject/25885212/

◎片 长 92分钟

◎导 演 布雷特·海利 Brett Haley (id:1350169)

◎编 剧 布雷特·海利 Brett Haley (id:1350169)

马克·鲍驰 Marc Basch (id:1350170)

◎演 员 布莱思·丹纳 Blythe Danner (id:1007014)

马丁·斯塔尔 Martin Starr (id:1022628)

朱恩·斯奎布 June Squibb (id:1154489)

雷亚·普尔曼 Rhea Perlman (id:1133682)

玛丽·凯·普莱斯 Mary Kay Place (id:1027844)

瑞德·斯科特 Reid Scott (id:1217248)

玛琳·阿克曼 Malin Akerman (id:1058055)

山姆·艾里奥特 Sam Elliott (id:1022599)

麦克斯·盖尔 Max Gail (id:1092250)

马克·阿戴尔-里奥斯 Mark Adair-Rios (id:1350171)

阿什利·斯皮尔斯 Ashley Spillers (id:1262350)

阿尔蒂·曼 Aarti Mann (id:1328903)

卡罗琳·拉格菲尔特 Caroline Lagerfelt (id:1103726)

维克·波利佐斯 Vic Polizos (id:1358648)

◎标 签 美国 / 温情 / 老年 / 人生 / 剧情 / 2015 / 喜剧 / 电影

◎简 介

卡罗尔(布莱思·丹纳 Blythe Danner 饰)曾是一位小有名气的歌手,在舞台上享受着万众瞩目的光彩。如今,年近七十的她早已无人问津,丈夫去世后就一直过着形单影只离群索居的生活。卡罗尔一直活在丈夫去世的阴影中,恐惧着失去和死亡,和女儿凯瑟琳(玛琳·阿克曼 Malin Akerman 饰)之间的关系亦十分紧张。

就在卡罗尔最困顿的时候,是她的好友乔治娜(琼·斯奎布 June Squibb 饰)、莎莉(雷亚·普尔曼 Rhea Perlman 饰)和罗娜(玛丽·凯·普莱斯 Mary Kay Place 饰)一直陪伴和鼓励着她。在朋友们的影响下,卡罗尔渐渐找回了开启新生活的信心,并先后结识了劳埃德(马丁·斯塔尔 Martin Starr 饰)和比尔(山姆·艾里奥特 Sam Elliott 饰)两名男子。

  1. ##### MediaInfo ######

  2. General

  3. Unique ID : 159813786095959733179727839354286395679 (0x783B03FF769A826527C9C4E887D6511F)

  4. Complete name : I'[email protected]BQDDQ.COM.mkv

  5. Format : Matroska

  6. Format version : Version 4

  7. File size : 6.65 GiB

  8. Duration : 1 h 36 min

  9. Overall bit rate : 9 854 kb/s

  10. Encoded date : UTC 2021-11-10 13:48:30

  11. Writing application : mkvmerge v53.0.0 ('Fool's Gold') 64-bit

  12. Writing library : libebml v1.4.1 + libmatroska v1.6.2


  13. Video

  14. ID : 1

  15. Format : HEVC

  16. Format/Info : High Efficiency Video Coding

  17. Format profile : Main [email protected]@Main

  18. Codec ID : V_MPEGH/ISO/HEVC

  19. Duration : 1 h 36 min

  20. Bit rate : 8 266 kb/s

  21. Width : 1 920 pixels

  22. Height : 1 036 pixels

  23. Display aspect ratio : 1.85:1

  24. Frame rate mode : Constant

  25. Frame rate : 23.976 (24000/1001/53354) FPS

  26. Color space : YUV

  27. Chroma subsampling : 4:2:0

  28. Bit depth : 10 bits

  29. Bits/(Pixel*Frame) : 0.173

  30. Stream size : 5.58 GiB (84%)

  31. Writing library : x265 3.5+2-g2b25c9ba0+45:[Windows][GCC 10.2.0][64 bit] Yuuki 10bit+8bit+12bit

  32. Encoding settings : rc=crf / crf=17.0000 / qcomp=0.60 / qpstep=4 / stats-write=0 / stats-read=0 / no-lossless / no-cu-lossless / aq-mode=3 / aq-strength=0.80 / cbqpoffs=0 / crqpoffs=0 / ipratio=1.40 / pbratio=1.30 / psy-rd=2.00 / psy-rdoq=0.00 / deblock=0:0 / ref=6 / limit-refs=1 / no-limit-modes / bframes=8 / b-adapt=2 / bframe-bias=0 / b-pyramid / b-intra / weightp / weightb / min-keyint=24 / max-keyint=240 / rc-lookahead=24 / gop-lookahead=0 / NTMzNTQ=uuDQuD2mJt9fsCf / scenecut=40 / hist-scenecut=0 / radl=0 / max-cu-size=64 / min-cu-size=8 / me=3 / subme=7 / merange=48 / rdoq-level=0 / rd=4 / rdpenalty=0 / dynamic-rd=0.00 / no-rd-refine / ----- / cutree / sao / no-rect / no-amp / no-open-gop / wpp / no-pmode / no-pme / no-psnr / no-ssim / nr-intra=0 / nr-inter=0 / no-constrained-intra / no-strong-intra-smoothing / max-tu-size=32 / tu-inter-depth=1 / tu-intra-depth=1 / limit-tu=0 / qg-size=32 / qpmax=69 / qpmin=0 / ----- / cpuid=533541111039 / frame-threads=5 / numa-pools=+ / log-level=2 / input-csp=1 / input-res=1920x1036 / interlace=0 / level-idc=0 / high-tier=1 / uhd-bd=0 / no-allow-non-conformance / no-repeat-headers / aud / no-hrd / info / hash=0 / no-temporal-layers / lookahead-slices=0 / no-splice / no-intra-refresh / no-ssim-rd / signhide / no-tskip / max-merge=3 / temporal-mvp / no-frame-dup / no-hme / no-analyze-src-pics / no-sao-non-deblock / selective-sao=4 / early-skip / rskip / no-fast-intra / no-tskip-fast / no-splitrd-skip / zone-count=0 / no-strict-cbr / no-rc-grain / no-const-vbv / sar=0 / overscan=0 / videoformat=5 / range=0 / colorprim=2 / transfer=2 / colormatrix=2 / chromaloc=0 / display-window=0 / cll=0,0 / min-luma=0 / max-luma=1023 / log2-max-poc-lsb=8 / vui-timing-info / vui-hrd-info / slices=1 / no-opt-qp-pps / no-opt-ref-list-length-pps / no-multi-pass-opt-rps / scenecut-bias=0.05 / hist-threshold=0.03 / no-opt-cu-delta-qp / no-aq-motion / no-hdr10 / no-hdr10-opt / no-dhdr10-opt / no-idr-recovery-sei / analysis-reuse-level=0 / analysis-save-reuse-level=0 / analysis-load-reuse-level=0 / scale-factor=0 / refine-intra=0 / refine-inter=0 / refine-mv=1 / refine-ctu-distortion=0 / no-limit-sao / ctu-info=0 / no-lowpass-dct / refine-analysis-type=0 / copy-pic=1 / max-ausize-factor=1.0 / no-dynamic-refine / no-single-sei / no-hevc-aq / no-svt / no-field / qp-adaptation-range=1.00 / scenecut-aware-qp=0conformance-window-offsets / right=0 / bottom=0 / NTMzNTQ= / decoder-max-rate=0 / no-vbv-live-multi-pass

  33. Language : English

  34. Default : Yes

  35. Forced : No


  36. Audio

  37. ID : 2

  38. ID in the original source medium : 4352 (0x1100)

  39. Format : DTS

  40. Format/Info : Digital Theater Systems

  41. Codec ID : A_DTS

  42. Duration : 1 h 36 min

  43. Bit rate mode : Constant

  44. Bit rate : 1 509 kb/s

  45. Channel(s) : 6 channels

  46. Channel layout : C L R Ls Rs LFE

  47. Sampling rate : 48.0 kHz

  48. Frame rate : 93.750 FPS (512 SPF)

  49. Bit depth : 24 bits

  50. Compression mode : Lossy

  51. Stream size : 1.02 GiB (15%)

  52. Language : English

  53. Default : Yes

  54. Forced : No

  55. Original source medium : Blu-ray


  56. Text #1

  57. ID : 3

  58. ID in the original source medium : 4611 (0x1203)

  59. Format : PGS

  60. Muxing mode : zlib

  61. Codec ID : S_HDMV/PGS

  62. Codec ID/Info : Picture based subtitle format used on BDs/HD-DVDs

  63. Duration : 1 h 28 min

  64. Bit rate : 48.1 kb/s

  65. Count of elements : 2820

  66. Stream size : 30.5 MiB (0%)

  67. Language : Chinese

  68. Default : Yes

  69. Forced : No

  70. Original source medium : Blu-ray


  71. Text #2

  72. ID : 4

  73. ID in the original source medium : 4612 (0x1204)

  74. Format : PGS

  75. Muxing mode : zlib

  76. Codec ID : S_HDMV/PGS

  77. Codec ID/Info : Picture based subtitle format used on BDs/HD-DVDs

  78. Duration : 1 h 28 min

  79. Bit rate : 48.5 kb/s

  80. Count of elements : 2820

  81. Stream size : 30.7 MiB (0%)

  82. Language : Chinese

  83. Default : No

  84. Forced : No

  85. Original source medium : Blu-ray


  86. Text #3

  87. ID : 5

  88. ID in the original source medium : 4613 (0x1205)

  89. Format : PGS

  90. Muxing mode : zlib

  91. Codec ID : S_HDMV/PGS

  92. Codec ID/Info : Picture based subtitle format used on BDs/HD-DVDs

  93. Duration : 1 h 28 min

  94. Bit rate : 26.2 kb/s

  95. Count of elements : 2820

  96. Stream size : 16.6 MiB (0%)

  97. Language : Chinese

  98. Default : No

  99. Forced : No

  100. Original source medium : Blu-ray


  101. Text #4

  102. ID : 6

  103. ID in the original source medium : 4614 (0x1206)

  104. Format : PGS

  105. Muxing mode : zlib

  106. Codec ID : S_HDMV/PGS

  107. Codec ID/Info : Picture based subtitle format used on BDs/HD-DVDs

  108. Duration : 1 h 28 min

  109. Bit rate : 26.6 kb/s

  110. Count of elements : 2820

  111. Stream size : 16.8 MiB (0%)

  112. Language : Chinese

  113. Default : No

  114. Forced : No

  115. Original source medium : Blu-ray


  116. Text #5

  117. ID : 7

  118. ID in the original source medium : 4608 (0x1200)

  119. Format : PGS

  120. Muxing mode : zlib

  121. Codec ID : S_HDMV/PGS

  122. Codec ID/Info : Picture based subtitle format used on BDs/HD-DVDs

  123. Duration : 1 h 28 min

  124. Bit rate : 40.5 kb/s

  125. Count of elements : 2964

  126. Stream size : 25.7 MiB (0%)

  127. Language : English

  128. Default : No

  129. Forced : No

  130. Original source medium : Blu-ray


  131. Menu

  132. 00:00:00.000 : en:第 01 章

  133. 00:05:06.556 : en:第 02 章

  134. 00:09:51.215 : en:第 03 章

  135. 00:14:02.675 : en:第 04 章

  136. 00:20:49.373 : en:第 05 章

  137. 00:25:09.049 : en:第 06 章

  138. 00:27:45.914 : en:第 07 章

  139. 00:34:21.934 : en:第 08 章

  140. 00:38:53.581 : en:第 09 章

  141. 00:42:12.780 : en:第 10 章

  142. 00:47:33.350 : en:第 11 章

  143. 00:51:26.458 : en:第 12 章

  144. 00:55:51.222 : en:第 13 章

  145. 00:59:42.996 : en:第 14 章

  146. 01:03:45.238 : en:第 15 章

  147. 01:08:26.435 : en:第 16 章

  148. 01:14:06.108 : en:第 17 章

  149. 01:19:59.836 : en:第 18 章

  150. 01:27:08.681 : en:第 19 章

  151. 01:30:24.377 : en:第 20 章




复制代码



文件下载


除非特别注明,本文『我们梦中见[中文字幕].I'll.See.You.in.My.Dreams.2015.1080p.BluRay.x265.10bit.DTS 6.65GB』来源于互联网机器人自动抓取,非本站原创。 浮游电影网不对本文拥有版权,如有侵犯,请联系邮箱:fuyouu#yandex.com[#换成@]投诉。我们会在15个工作日内删除。 但烦请转载时请标明出处:“本文转载于『浮游电影网』,原文地址:https://www.fuyouu.com/17716.html

评论吧骚年!

发表你的见解   

昵称*

E-mail*(建议输入,以便收到博主回复的提示邮件)

验证码*

您可以使用eMule或eMule Mod(Windows)、aMule(Win、Linux、Mac)等软件下载eD2k链接。。
eMule收藏集(.emulecollection)文件是您选中的所有链接的列表文件。eMule可以直接下载它们。
按住SHIFT键选择可以选中多个选择框。
可用文件名和大小选择器来选择文件。
文件名选择器帮您根据文件名称或后缀来选择文件。不分大小写。
符号使用:
和:空格( )、+
不包含:-
或:|
转义:一对英文引号("");
匹配开头:^
匹配结尾:$
例如:
选中所有名称中包含有“eMule”或“0.49c”字眼,但不包含有“exe”字眼的:emule|0.49c -exe
选中所有名称的开头是“eMule”,结尾是“0.49c”的:^emule 0.49c$
选中所有名称中带有“eMule 0.49c”的(必须是“eMule 0.49c”,中间没有别的字符,不能是“eMule fake 0.49c”),需要转义:"emule 0.49c"
大小选择器帮您根据文件大小选择文件。