当前位置: 首页 >> 海外电影 >> 忠贞[简繁字幕].Vernost.2019.BluRay.1080p.DTS-HD.MA5.1.x265.10bit 5.04GB >> 正文

忠贞[简繁字幕].Vernost.2019.BluRay.1080p.DTS-HD.MA5.1.x265.10bit 5.04GB

2021年10月14日 16:07:04     电影发布:来源于网络     电影分类:海外电影     评论(0)    

忠贞[简繁字幕].Vernost.2019.BluRay.1080p.DTS HD.MA5.1.x265.10bit 5.04GB 情色 剧情片 海外电影  第1张

◎译 名 忠贞 / 饥俄人妻(港 / 台) / 忠诚 / Vernost / The Fidelity

◎片 名 Верность

◎年 代 2019

◎产 地 俄罗斯

◎类 别 情色

◎语 言 俄语

◎上映日期 2019-10-31(俄罗斯)

◎IMDb链接 https://www.imdb.com/title/tt10516086/

◎豆瓣评分 6.2/10 (5058人评价)

◎豆瓣链接 https://movie.douban.com/subject/34875261/

◎片 长 82分钟

◎导 演 尼吉娜·赛福莱娃 Nigina Sayfullaeva (id:1425476)

◎编 剧 尼吉娜·赛福莱娃 Nigina Sayfullaeva (id:1425476)

卢博夫·慕尔门科 Lyubov Mulmenko (id:1438958)

◎演 员 叶夫根尼娅·格罗莫娃 Evgeniya Gromova (id:1428429)

亚历山大·帕里 Aleksandr Pal (id:1374197)

安娜·科托瓦 Anna Kotova (id:1270049)

帕维尔·沃罗日佐夫 Pavel Vorozhtsov (id:1461624)

阿列克谢·阿格拉诺维奇 ALEKSEY AGRANOVICH (id:1461787)

◎标 签 情色 / 俄罗斯 / 女性 / 爱情 / 电影 / 人性 / 剧情 / 2019

◎简 介

莉娜是一位才华横溢的妇产科医生,她的丈夫谢尔盖是一家省级剧院的演员。他们的关系温柔而亲密,但完全没有性。莉娜怀疑谢尔盖有外遇,但她默默忍受,没有让她的嫉妒表现出来。莉娜开始和一些随机的男人发生外遇,她的不忠行为最终失控并改变了她的真实生活。

  1. ##### MediaInfo ######

  2. General

  3. Unique ID : 206476826002804482176464040843075566074 (0x9B55FD7DE23CB96A8F6AEAD25ECAB9FA)

  4. Complete name : [email protected]OM.mkv

  5. Format : Matroska

  6. Format version : Version 4

  7. File size : 5.04 GiB

  8. Duration : 1 h 21 min

  9. Overall bit rate mode : Variable

  10. Overall bit rate : 8 830 kb/s

  11. Encoded date : UTC 2021-10-13 01:56:01

  12. Writing application : mkvmerge v49.0.0 ('Sick Of Losing Soulmates') 64-bit

  13. Writing library : libebml v1.4.0 + libmatroska v1.6.1


  14. Video

  15. ID : 1

  16. Format : HEVC

  17. Format/Info : High Efficiency Video Coding

  18. Format profile : Main [email protected]@High

  19. Codec ID : V_MPEGH/ISO/HEVC

  20. Duration : 1 h 21 min

  21. Bit rate : 5 588 kb/s

  22. Width : 1 920 pixels

  23. Height : 804 pixels

  24. Display aspect ratio : 2.40:1

  25. Frame rate mode : Constant

  26. Frame rate : 24.000 FPS

  27. Color space : YUV

  28. Chroma subsampling : 4:2:0

  29. Bit depth : 10 bits

  30. Bits/(Pixel*Frame) : 0.151

  31. Stream size : 3.19 GiB (63%)

  32. Title : HEVC, [email protected]@High, 24 fps @ 5588 kbps

  33. Writing library : x265 3.4+14-gd419c7152:[Windows][GCC 10.2.0][64 bit] 10bit

  34. Encoding settings : cpuid=533541111039 / frame-threads=4 / numa-pools=20 / wpp / pmode / pme / no-psnr / no-ssim / log-level=2 / input-csp=1 / input-res=1920x804 / interlace=0 / total-frames=117746 / level-idc=51 / high-tier=1 / uhd-bd=0 / ref=5 / no-allow-non-conformance / no-repeat-headers / annexb / no-aud / no-hrd / info / hash=0 / no-temporal-layers / open-gop / min-keyint=24 / keyint=240 / gop-lookahead=0 / bframes=6 / b-adapt=2 / b-pyramid / bframe-bias=0 / rc-lookahead=40 / lookahead-slices=0 / NTMzNTQ=uuDQuD2mJt9fsCf / scenecut=40 / hist-scenecut=0 / radl=0 / no-splice / no-intra-refresh / ctu=32 / min-cu-size=8 / no-rect / no-amp / max-tu-size=32 / tu-inter-depth=3 / tu-intra-depth=3 / limit-tu=4 / rdoq-level=2 / dynamic-rd=0.00 / no-ssim-rd / signhide / no-tskip / nr-intra=0 / nr-inter=0 / no-constrained-intra / no-strong-intra-smoothing / max-merge=4 / limit-refs=1 / limit-modes / me=3 / subme=4 / merange=25 / temporal-mvp / no-frame-dup / no-hme / weightp / weightb / no-analyze-src-pics / deblock=-3:-3 / no-sao / no-sao-non-deblock / rd=6 / selective-sao=0 / no-early-skip / rskip / no-fast-intra / no-tskip-fast / no-cu-lossless / b-intra / no-splitrd-skip / rdpenalty=0 / psy-rd=2.00 / psy-rdoq=1.00 / no-rd-refine / no-lossless / cbqpoffs=0 / crqpoffs=0 / rc=crf / crf=17.0 / qcomp=0.65 / qpstep=4 / stats-write=0 / stats-read=0 / vbv-maxrate=80000 / vbv-bufsize=80000 / vbv-init=0.9 / crf-max=0.0 / crf-min=0.0 / ipratio=1.40 / pbratio=1.30 / aq-mode=2 / aq-strength=0.85 / cutree / zone-count=0 / no-strict-cbr / qg-size=32 / no-rc-grain / qpmax=69 / qpmin=0 / no-const-vbv / sar=1 / overscan=0 / videoformat=5 / range=0 / colorprim=1 / transfer=1 / colormatrix=1 / chromaloc=0 / display-window=0 / cll=0,0 / min-luma=0 / max-luma=1023 / log2-max-poc-lsb=8 / vui-timing-info / vui-hrd-info / slices=1 / no-opt-qp-pps / no-opt-ref-list-length-pps / no-multi-pass-opt-rps / scenecut-bias=0.05 / hist-threshold=0.03 / no-opt-cu-delta-qp / no-aq-motion / no-hdr10 / no-hdr10-opt / no-dhdr10-opt / no-idr-recovery-sei / analysis-reuse-level=0 / analysis-save-reuse-level=0 / analysis-load-reuse-level=0 / scale-factor=0 / refine-intra=0 / refine-inter=0 / refine-mv=1 / refine-ctu-distortion=0 / no-limit-sao / ctu-info=0 / no-lowpass-dct / refine-analysis-type=0 / copy-pic=1 / max-ausize-factor=1.0 / no-dynamic-refine / no-single-sei / no-hevc-aq / no-svt / no-field / qp-adaptation-range=1.00 / no-scenecut-aware-qpconformance-window-offsets / right=0 / bottom=0 / NTMzNTQ= / decoder-max-rate=0

  35. Language : English

  36. Default : Yes

  37. Forced : No

  38. Color range : Limited

  39. Color primaries : BT.709

  40. Transfer characteristics : BT.709

  41. Matrix coefficients : BT.709


  42. Audio

  43. ID : 2

  44. Format : DTS XLL

  45. Format/Info : Digital Theater Systems

  46. Commercial name : DTS-HD Master Audio

  47. Codec ID : A_DTS

  48. Duration : 1 h 21 min

  49. Bit rate mode : Variable

  50. Bit rate : 3 195 kb/s

  51. Channel(s) : 6 channels

  52. Channel layout : C L R Ls Rs LFE

  53. Sampling rate : 48.0 kHz

  54. Frame rate : 93.750 FPS (512 SPF)

  55. Bit depth : 24 bits

  56. Compression mode : Lossless

  57. Stream size : 1.83 GiB (36%)

  58. Title : Russian DTS-HD Master Audio 5.1 @ 3195?kbps

  59. Language : Russian

  60. Default : Yes

  61. Forced : No


  62. Text #1

  63. ID : 3

  64. Format : PGS

  65. Codec ID : S_HDMV/PGS

  66. Codec ID/Info : Picture based subtitle format used on BDs/HD-DVDs

  67. Duration : 1 h 15 min

  68. Bit rate : 16.6 kb/s

  69. Count of elements : 1336

  70. Stream size : 8.99 MiB (0%)

  71. Title : Eng/SUP

  72. Language : English

  73. Default : No

  74. Forced : No


  75. Text #2

  76. ID : 4

  77. Format : PGS

  78. Codec ID : S_HDMV/PGS

  79. Codec ID/Info : Picture based subtitle format used on BDs/HD-DVDs

  80. Duration : 1 h 15 min

  81. Bit rate : 14.8 kb/s

  82. Count of elements : 1327

  83. Stream size : 8.02 MiB (0%)

  84. Title : Chs/SUP 简体

  85. Language : Chinese

  86. Default : Yes

  87. Forced : No


  88. Text #3

  89. ID : 5

  90. Format : PGS

  91. Codec ID : S_HDMV/PGS

  92. Codec ID/Info : Picture based subtitle format used on BDs/HD-DVDs

  93. Duration : 1 h 15 min

  94. Bit rate : 15.3 kb/s

  95. Count of elements : 1327

  96. Stream size : 8.32 MiB (0%)

  97. Title : Cht/SUP 繁体

  98. Language : Chinese

  99. Default : No

  100. Forced : No




复制代码



文件下载


除非特别注明,本文『忠贞[简繁字幕].Vernost.2019.BluRay.1080p.DTS-HD.MA5.1.x265.10bit 5.04GB』来源于互联网机器人自动抓取,非本站原创。 浮游电影网不对本文拥有版权,如有侵犯,请联系邮箱:fuyouu#yandex.com[#换成@]投诉。我们会在15个工作日内删除。 但烦请转载时请标明出处:“本文转载于『浮游电影网』,原文地址:https://www.fuyouu.com/14953.html

评论吧骚年!

发表你的见解   

昵称*

E-mail*(建议输入,以便收到博主回复的提示邮件)

验证码*

您可以使用eMule或eMule Mod(Windows)、aMule(Win、Linux、Mac)等软件下载eD2k链接。。
eMule收藏集(.emulecollection)文件是您选中的所有链接的列表文件。eMule可以直接下载它们。
按住SHIFT键选择可以选中多个选择框。
可用文件名和大小选择器来选择文件。
文件名选择器帮您根据文件名称或后缀来选择文件。不分大小写。
符号使用:
和:空格( )、+
不包含:-
或:|
转义:一对英文引号("");
匹配开头:^
匹配结尾:$
例如:
选中所有名称中包含有“eMule”或“0.49c”字眼,但不包含有“exe”字眼的:emule|0.49c -exe
选中所有名称的开头是“eMule”,结尾是“0.49c”的:^emule 0.49c$
选中所有名称中带有“eMule 0.49c”的(必须是“eMule 0.49c”,中间没有别的字符,不能是“eMule fake 0.49c”),需要转义:"emule 0.49c"
大小选择器帮您根据文件大小选择文件。