当前位置: 首页 >> 国产电影 >> 中国营长[国语配音/中文字幕].China.Battalion.Commander.2021.4K.WEB-DL.H265.DDP2.0 2.49GB >> 正文

中国营长[国语配音/中文字幕].China.Battalion.Commander.2021.4K.WEB-DL.H265.DDP2.0 2.49GB

2021年10月14日 16:05:47     电影发布:来源于网络     电影分类:国产电影     评论(0)    

中国营长[国语配音/中文字幕].China.Battalion.Commander.2021.4K.WEB DL.H265.DDP2.0 2.49GB 战争片 剧情片 国产电影  第1张

◎译 名 中国营长 / 钢铁流火

◎年 代 2021

◎产 地 中国大陆

◎类 别 战争

◎语 言 汉语普通话

◎上映日期 2021-10-13(中国大陆)

◎IMDb链接 https://www.imdb.com/title//

◎豆瓣链接 https://movie.douban.com/subject/35294950/

◎片 长 91分钟

◎导 演 赵勇 Yong Zhao (id:1384886)

◎标 签 英烈 / 抗日 / 2021等评分 / 真实故事 / 大陆 / 国产 / 中国电影

◎简 介

改编自抗战时期忻口战役,八路军抗日英雄赵崇德率部夜袭日军阳明堡机场并炸毁24架敌机,最终在掩护部队撤退时英勇牺牲的壮举。赵崇德率领部队夜袭日军机场,经过重重困难终于将日军24架战机炸毁,并以身殉国。

  1. ##### MediaInfo ######

  2. General

  3. Unique ID : 180750538527656556734866178512233604164 (0x87FB499712E4945F51DC34C2A1FAA444)

  4. Complete name : 中国营长[email protected]DQ.COM.mkv

  5. Format : Matroska

  6. Format version : Version 4

  7. File size : 2.49 GiB

  8. Duration : 1 h 31 min

  9. Overall bit rate : 3 881 kb/s

  10. Encoded date : UTC 2021-10-13 11:11:18

  11. Writing application : mkvmerge v61.0.0 ('So') 64-bit

  12. Writing library : libebml v1.4.2 + libmatroska v1.6.4


  13. Video

  14. ID : 1

  15. Format : HEVC

  16. Format/Info : High Efficiency Video Coding

  17. Format profile : [email protected]@Main

  18. Codec ID : V_MPEGH/ISO/HEVC

  19. Duration : 1 h 31 min

  20. Bit rate : 3 783 kb/s

  21. Width : 3 840 pixels

  22. Height : 1 592 pixels

  23. Display aspect ratio : 2.40:1

  24. Frame rate mode : Constant

  25. Frame rate : 24.000 FPS

  26. Color space : YUV

  27. Chroma subsampling : 4:2:0

  28. Bit depth : 8 bits

  29. Bits/(Pixel*Frame) : 0.026

  30. Stream size : 2.43 GiB (97%)

  31. Default : Yes

  32. Forced : No


  33. Audio

  34. ID : 2

  35. Format : E-AC-3

  36. Format/Info : Enhanced AC-3

  37. Commercial name : Dolby Digital Plus

  38. Codec ID : A_EAC3

  39. Duration : 1 h 31 min

  40. Bit rate mode : Constant

  41. Bit rate : 96.0 kb/s

  42. Channel(s) : 2 channels

  43. Channel layout : L R

  44. Sampling rate : 48.0 kHz

  45. Frame rate : 31.250 FPS (1536 SPF)

  46. Compression mode : Lossy

  47. Stream size : 63.1 MiB (2%)

  48. Service kind : Complete Main

  49. Default : Yes

  50. Forced : No




复制代码




文件下载


除非特别注明,本文『中国营长[国语配音/中文字幕].China.Battalion.Commander.2021.4K.WEB-DL.H265.DDP2.0 2.49GB』来源于互联网机器人自动抓取,非本站原创。 浮游电影网不对本文拥有版权,如有侵犯,请联系邮箱:fuyouu#yandex.com[#换成@]投诉。我们会在15个工作日内删除。 但烦请转载时请标明出处:“本文转载于『浮游电影网』,原文地址:https://www.fuyouu.com/14952.html

评论吧骚年!

发表你的见解   

昵称*

E-mail*(建议输入,以便收到博主回复的提示邮件)

验证码*

您可以使用eMule或eMule Mod(Windows)、aMule(Win、Linux、Mac)等软件下载eD2k链接。。
eMule收藏集(.emulecollection)文件是您选中的所有链接的列表文件。eMule可以直接下载它们。
按住SHIFT键选择可以选中多个选择框。
可用文件名和大小选择器来选择文件。
文件名选择器帮您根据文件名称或后缀来选择文件。不分大小写。
符号使用:
和:空格( )、+
不包含:-
或:|
转义:一对英文引号("");
匹配开头:^
匹配结尾:$
例如:
选中所有名称中包含有“eMule”或“0.49c”字眼,但不包含有“exe”字眼的:emule|0.49c -exe
选中所有名称的开头是“eMule”,结尾是“0.49c”的:^emule 0.49c$
选中所有名称中带有“eMule 0.49c”的(必须是“eMule 0.49c”,中间没有别的字符,不能是“eMule fake 0.49c”),需要转义:"emule 0.49c"
大小选择器帮您根据文件大小选择文件。