当前位置: 首页 >> 国产电影 >> 昆仑谜宫[国语配音/中文字幕].Movie.KunLun.Labyrinth.2021.2160p.WEB-DL.H265.DDP2.0 1.14GB >> 正文

昆仑谜宫[国语配音/中文字幕].Movie.KunLun.Labyrinth.2021.2160p.WEB-DL.H265.DDP2.0 1.14GB

2021年10月14日 16:04:36     电影发布:来源于网络     电影分类:国产电影     评论(0)    

昆仑谜宫[国语配音/中文字幕].Movie.KunLun.Labyrinth.2021.2160p.WEB DL.H265.DDP2.0 1.14GB 剧情片 国产电影  第1张

◎译 名 昆仑谜宫

◎年 代 2021

◎产 地 中国大陆

◎语 言 汉语普通话

◎上映日期 2021-10-13(中国大陆)

◎IMDb链接 https://www.imdb.com/title//

◎豆瓣链接 https://movie.douban.com/subject/35619105/

◎标 签 大陆

◎简 介

上世纪八十年代,陆秉峥与陈有德带领的考古队在前往昆仑山考察中途遭遇沙尘暴,意外掉进尼雅女王的地陵,却发现位于地下的一个巨大磁场迷宫。在遭遇了巨型蜘蛛与毒蝎群等袭击之后,全体队员阵亡,只有陈有德逃了回来,而陈有德却不知所踪。七年之后,陆秉峥之子陆九逸带领众人踏入茫茫沙漠,寻找尼雅古国,试图找回父亲的踪迹,可等待他们的却是各种诡异的未解之谜……

  1. ##### MediaInfo ######

  2. General

  3. Unique ID : 95775353291266916656559594079414226857 (0x480DA97E52C8CDA61DC36E9478A58FA9)

  4. Complete name : 昆仑谜宫.Movie KunLun [email protected]

  5. Format : Matroska

  6. Format version : Version 4

  7. File size : 1.14 GiB

  8. Duration : 1 h 13 min

  9. Overall bit rate : 2 235 kb/s

  10. Encoded date : UTC 2021-10-13 03:46:19

  11. Writing application : mkvmerge v61.0.0 ('So') 64-bit

  12. Writing library : libebml v1.4.2 + libmatroska v1.6.4


  13. Video

  14. ID : 1

  15. Format : HEVC

  16. Format/Info : High Efficiency Video Coding

  17. Format profile : [email protected]@Main

  18. Codec ID : V_MPEGH/ISO/HEVC

  19. Duration : 1 h 13 min

  20. Bit rate : 1 851 kb/s

  21. Width : 3 840 pixels

  22. Height : 1 442 pixels

  23. Display aspect ratio : 2.663

  24. Frame rate mode : Constant

  25. Frame rate : 25.000 FPS

  26. Color space : YUV

  27. Chroma subsampling : 4:2:0

  28. Bit depth : 8 bits

  29. Bits/(Pixel*Frame) : 0.013

  30. Stream size : 970 MiB (83%)

  31. Default : Yes

  32. Forced : No

  33. Color range : Limited

  34. Color primaries : BT.709

  35. Transfer characteristics : BT.709

  36. Matrix coefficients : BT.709


  37. Audio #1

  38. ID : 2

  39. Format : AAC LC

  40. Format/Info : Advanced Audio Codec Low Complexity

  41. Codec ID : A_AAC-2

  42. Duration : 1 h 13 min

  43. Bit rate : 125 kb/s

  44. Channel(s) : 2 channels

  45. Channel layout : L R

  46. Sampling rate : 48.0 kHz

  47. Frame rate : 46.875 FPS (1024 SPF)

  48. Compression mode : Lossy

  49. Delay relative to video : -42 ms

  50. Stream size : 65.7 MiB (6%)

  51. Language : Chinese

  52. Default : Yes

  53. Forced : No


  54. Audio #2

  55. ID : 3

  56. Format : E-AC-3

  57. Format/Info : Enhanced AC-3

  58. Commercial name : Dolby Digital Plus

  59. Codec ID : A_EAC3

  60. Duration : 1 h 13 min

  61. Bit rate mode : Constant

  62. Bit rate : 256 kb/s

  63. Channel(s) : 2 channels

  64. Channel layout : L R

  65. Sampling rate : 48.0 kHz

  66. Frame rate : 31.250 FPS (1536 SPF)

  67. Compression mode : Lossy

  68. Delay relative to video : -42 ms

  69. Stream size : 134 MiB (11%)

  70. Language : Chinese

  71. Service kind : Complete Main

  72. Default : Yes

  73. Forced : No




复制代码



文件下载


除非特别注明,本文『昆仑谜宫[国语配音/中文字幕].Movie.KunLun.Labyrinth.2021.2160p.WEB-DL.H265.DDP2.0 1.14GB』来源于互联网机器人自动抓取,非本站原创。 浮游电影网不对本文拥有版权,如有侵犯,请联系邮箱:fuyouu#yandex.com[#换成@]投诉。我们会在15个工作日内删除。 但烦请转载时请标明出处:“本文转载于『浮游电影网』,原文地址:https://www.fuyouu.com/14951.html

评论吧骚年!

发表你的见解   

昵称*

E-mail*(建议输入,以便收到博主回复的提示邮件)

验证码*

您可以使用eMule或eMule Mod(Windows)、aMule(Win、Linux、Mac)等软件下载eD2k链接。。
eMule收藏集(.emulecollection)文件是您选中的所有链接的列表文件。eMule可以直接下载它们。
按住SHIFT键选择可以选中多个选择框。
可用文件名和大小选择器来选择文件。
文件名选择器帮您根据文件名称或后缀来选择文件。不分大小写。
符号使用:
和:空格( )、+
不包含:-
或:|
转义:一对英文引号("");
匹配开头:^
匹配结尾:$
例如:
选中所有名称中包含有“eMule”或“0.49c”字眼,但不包含有“exe”字眼的:emule|0.49c -exe
选中所有名称的开头是“eMule”,结尾是“0.49c”的:^emule 0.49c$
选中所有名称中带有“eMule 0.49c”的(必须是“eMule 0.49c”,中间没有别的字符,不能是“eMule fake 0.49c”),需要转义:"emule 0.49c"
大小选择器帮您根据文件大小选择文件。