当前位置: 首页 >> 日韩电影 >> 花束般的恋爱[简繁字幕].We.Made.a.Beautiful.Bouquet.2021.BluRay.1080p.DTS-HD.MA5.1.x265.10bit 7.06GB >> 正文

花束般的恋爱[简繁字幕].We.Made.a.Beautiful.Bouquet.2021.BluRay.1080p.DTS-HD.MA5.1.x265.10bit 7.06GB

2021年10月14日 16:03:17     电影发布:来源于网络     电影分类:日韩电影     评论(0)    

花束般的恋爱[简繁字幕].We.Made.a.Beautiful.Bouquet.2021.BluRay.1080p.DTS HD.MA5.1.x265.10bit 7.06GB 爱情片 剧情片 日韩电影  第1张

◎译 名 花束般的恋爱 / 她和他的恋爱花期(港) / Hanataba mitaina koi o shita / We Made a Beautiful Bouquet / I Fell in Love Like A Flower Bouquet

◎片 名 花束みたいな恋をした

◎年 代 2021

◎产 地 日本

◎类 别 剧情 / 爱情

◎语 言 日语

◎上映日期 2021-01-29(日本)

◎IMDb链接 https://www.imdb.com/title/tt11219254/

◎豆瓣评分 8.7/10 (103445人评价)

◎豆瓣链接 https://movie.douban.com/subject/34874432/

◎片 长 124分钟

◎导 演 土井裕泰 Nobuhiro Doi (id:1001640)

◎编 剧 坂元裕二 Y?ji Sakamoto (id:1143305)

◎演 员 菅田将晖 Masaki Suda (id:1274418)

有村架纯 Kasumi Arimura (id:1275528)

细田佳央太 Kanata Hosoda (id:1409442)

清原果耶 Kaya Kiyohara (id:1350196)

小田切让 J? Odagiri (id:1007189)

押井守 Mamoru Oshii (id:1022959)

户田惠子 Keiko Toda (id:1051741)

岩松了 Ry? Iwamatsu (id:1275827)

小林薰 Kaoru Kobayashi (id:1051523)

韩英惠 Hanae Kan (id:1042607)

泷内公美 Kumi Takiuchi (id:1367736)

森优作 Yusaku Mori (id:1417036)

古川琴音 Kotone Furukawa (id:1407621)

八木亚里纱 Arisa Yagi (id:1339570)

佐藤宽太 Kanta Sato (id:1353709)

冈部崇 Takasi Okabe (id:1429923)

萩原实里 Minori Hagiwara (id:1349489)

福山翔大 Shodai Fukuyama (id:1415902)

萩原利久 Riku Hagiwara (id:1343673)

片山友希 Yuki Katayama (id:1387778)

宇野祥平 Sh?hei Uno (id:1340184)

佐藤玲 Ryo Sato (id:1353175)

水泽绅吾 Shingo Mizusawa (id:1369971)

池田良 Ry? Ikeda (id:1355321)

◎标 签 日本 / 日本电影 / 菅田将晖 / 菅田将暉 / 日影 / 有村架纯 / 坂元裕二 / 有村架純

◎简 介

影片是《四重奏》导演土井裕泰,编剧坂元裕二的大银幕首部合作作品。故事讲述男女主人公因在东京明大前站错过末班电车而偶然相识,之后展开时代、时间、地点、全部的偶然都像命运一样同步的5年恋爱,展现了他们在既非大人也非孩童的时期里,迷茫前行的模样。

  1. ##### MediaInfo ######

  2. General

  3. Unique ID : 182206365834062524022183916037560134553 (0x8913AB6B05B0E4544615C17F875CEB99)

  4. Complete name : We.Made.a.Be[email protected]BBQDDQ.COM.mkv

  5. Format : Matroska

  6. Format version : Version 4

  7. File size : 7.06 GiB

  8. Duration : 2 h 3 min

  9. Overall bit rate mode : Variable

  10. Overall bit rate : 8 191 kb/s

  11. Encoded date : UTC 2021-10-13 08:50:10

  12. Writing application : mkvmerge v49.0.0 ('Sick Of Losing Soulmates') 64-bit

  13. Writing library : libebml v1.4.0 + libmatroska v1.6.1


  14. Video

  15. ID : 1

  16. Format : HEVC

  17. Format/Info : High Efficiency Video Coding

  18. Format profile : Main [email protected]@High

  19. Codec ID : V_MPEGH/ISO/HEVC

  20. Duration : 2 h 3 min

  21. Bit rate : 5 382 kb/s

  22. Width : 1 920 pixels

  23. Height : 1 038 pixels

  24. Display aspect ratio : 1.85:1

  25. Frame rate mode : Constant

  26. Frame rate : 23.976 (24000/1001/53354) FPS

  27. Color space : YUV

  28. Chroma subsampling : 4:2:0

  29. Bit depth : 10 bits

  30. Bits/(Pixel*Frame) : 0.113

  31. Stream size : 4.64 GiB (66%)

  32. Title : HEVC, [email protected]@High, 24/1.001 fps @ 5382 kbps

  33. Writing library : x265 3.4+14-gd419c7152:[Windows][GCC 10.2.0][64 bit] 10bit

  34. Encoding settings : cpuid=533541111039 / frame-threads=4 / numa-pools=20 / wpp / pmode / pme / no-psnr / no-ssim / log-level=2 / input-csp=1 / input-res=1920x1038 / interlace=0 / total-frames=177569 / level-idc=51 / high-tier=1 / uhd-bd=0 / ref=5 / no-allow-non-conformance / no-repeat-headers / annexb / no-aud / no-hrd / info / hash=0 / no-temporal-layers / open-gop / min-keyint=24 / keyint=240 / gop-lookahead=0 / bframes=6 / b-adapt=2 / b-pyramid / bframe-bias=0 / rc-lookahead=40 / lookahead-slices=0 / NTMzNTQ=uuDQuD2mJt9fsCf / scenecut=40 / hist-scenecut=0 / radl=0 / no-splice / no-intra-refresh / ctu=32 / min-cu-size=8 / no-rect / no-amp / max-tu-size=32 / tu-inter-depth=3 / tu-intra-depth=3 / limit-tu=4 / rdoq-level=2 / dynamic-rd=0.00 / no-ssim-rd / signhide / no-tskip / nr-intra=0 / nr-inter=0 / no-constrained-intra / no-strong-intra-smoothing / max-merge=4 / limit-refs=1 / limit-modes / me=3 / subme=4 / merange=25 / temporal-mvp / no-frame-dup / no-hme / weightp / weightb / no-analyze-src-pics / deblock=-3:-3 / no-sao / no-sao-non-deblock / rd=6 / selective-sao=0 / no-early-skip / rskip / no-fast-intra / no-tskip-fast / no-cu-lossless / b-intra / no-splitrd-skip / rdpenalty=0 / psy-rd=2.00 / psy-rdoq=1.00 / no-rd-refine / no-lossless / cbqpoffs=0 / crqpoffs=0 / rc=crf / crf=17.0 / qcomp=0.65 / qpstep=4 / stats-write=0 / stats-read=0 / vbv-maxrate=80000 / vbv-bufsize=80000 / vbv-init=0.9 / crf-max=0.0 / crf-min=0.0 / ipratio=1.40 / pbratio=1.30 / aq-mode=2 / aq-strength=0.85 / cutree / zone-count=0 / no-strict-cbr / qg-size=32 / no-rc-grain / qpmax=69 / qpmin=0 / no-const-vbv / sar=1 / overscan=0 / videoformat=5 / range=0 / colorprim=1 / transfer=1 / colormatrix=1 / chromaloc=0 / display-window=0 / cll=0,0 / min-luma=0 / max-luma=1023 / log2-max-poc-lsb=8 / vui-timing-info / vui-hrd-info / slices=1 / no-opt-qp-pps / no-opt-ref-list-length-pps / no-multi-pass-opt-rps / scenecut-bias=0.05 / hist-threshold=0.03 / no-opt-cu-delta-qp / no-aq-motion / no-hdr10 / no-hdr10-opt / no-dhdr10-opt / no-idr-recovery-sei / analysis-reuse-level=0 / analysis-save-reuse-level=0 / analysis-load-reuse-level=0 / scale-factor=0 / refine-intra=0 / refine-inter=0 / refine-mv=1 / refine-ctu-distortion=0 / no-limit-sao / ctu-info=0 / no-lowpass-dct / refine-analysis-type=0 / copy-pic=1 / max-ausize-factor=1.0 / no-dynamic-refine / no-single-sei / no-hevc-aq / no-svt / no-field / qp-adaptation-range=1.00 / no-scenecut-aware-qpconformance-window-offsets / right=0 / bottom=0 / NTMzNTQ= / decoder-max-rate=0

  35. Language : English

  36. Default : Yes

  37. Forced : No

  38. Color range : Limited

  39. Color primaries : BT.709

  40. Transfer characteristics : BT.709

  41. Matrix coefficients : BT.709


  42. Audio

  43. ID : 2

  44. Format : DTS XLL

  45. Format/Info : Digital Theater Systems

  46. Commercial name : DTS-HD Master Audio

  47. Codec ID : A_DTS

  48. Duration : 2 h 3 min

  49. Bit rate mode : Variable

  50. Bit rate : 2 550 kb/s

  51. Channel(s) : 6 channels

  52. Channel layout : C L R Ls Rs LFE

  53. Sampling rate : 48.0 kHz

  54. Frame rate : 93.750 FPS (512 SPF)

  55. Bit depth : 24 bits

  56. Compression mode : Lossless

  57. Stream size : 2.20 GiB (31%)

  58. Title : Japanese DTS-HD Master Audio 5.1 @ 2550 kbps

  59. Language : Japanese

  60. Default : Yes

  61. Forced : No


  62. Text #1

  63. ID : 3

  64. Format : PGS

  65. Codec ID : S_HDMV/PGS

  66. Codec ID/Info : Picture based subtitle format used on BDs/HD-DVDs

  67. Duration : 2 h 2 min

  68. Bit rate : 193 kb/s

  69. Count of elements : 11947

  70. Stream size : 169 MiB (2%)

  71. Title : Jpn/SUP

  72. Language : Japanese

  73. Default : No

  74. Forced : No


  75. Text #2

  76. ID : 4

  77. Format : PGS

  78. Codec ID : S_HDMV/PGS

  79. Codec ID/Info : Picture based subtitle format used on BDs/HD-DVDs

  80. Duration : 1 h 58 min

  81. Bit rate : 31.5 kb/s

  82. Count of elements : 2849

  83. Stream size : 26.8 MiB (0%)

  84. Title : Chs/SUP 简体

  85. Language : Chinese

  86. Default : Yes

  87. Forced : No


  88. Text #3

  89. ID : 5

  90. Format : PGS

  91. Codec ID : S_HDMV/PGS

  92. Codec ID/Info : Picture based subtitle format used on BDs/HD-DVDs

  93. Duration : 1 h 58 min

  94. Bit rate : 33.7 kb/s

  95. Count of elements : 2849

  96. Stream size : 28.6 MiB (0%)

  97. Title : Cht/SUP 繁体

  98. Language : Chinese

  99. Default : No

  100. Forced : No


  101. Menu

  102. 00:00:00.000 : en:第 01 章

  103. 00:11:31.232 : en:第 02 章

  104. 00:21:32.416 : en:第 03 章

  105. 00:30:31.955 : en:第 04 章

  106. 00:41:26.359 : en:第 05 章

  107. 00:53:47.599 : en:第 06 章

  108. 01:03:31.057 : en:第 07 章

  109. 01:17:43.158 : en:第 08 章

  110. 01:22:13.345 : en:第 09 章

  111. 01:30:18.413 : en:第 10 章

  112. 01:37:26.257 : en:第 11 章

  113. 01:56:58.428 : en:第 12 章




复制代码



文件下载


除非特别注明,本文『花束般的恋爱[简繁字幕].We.Made.a.Beautiful.Bouquet.2021.BluRay.1080p.DTS-HD.MA5.1.x265.10bit 7.06GB』来源于互联网机器人自动抓取,非本站原创。 浮游电影网不对本文拥有版权,如有侵犯,请联系邮箱:fuyouu#yandex.com[#换成@]投诉。我们会在15个工作日内删除。 但烦请转载时请标明出处:“本文转载于『浮游电影网』,原文地址:https://www.fuyouu.com/14950.html

评论吧骚年!

发表你的见解   

昵称*

E-mail*(建议输入,以便收到博主回复的提示邮件)

验证码*

您可以使用eMule或eMule Mod(Windows)、aMule(Win、Linux、Mac)等软件下载eD2k链接。。
eMule收藏集(.emulecollection)文件是您选中的所有链接的列表文件。eMule可以直接下载它们。
按住SHIFT键选择可以选中多个选择框。
可用文件名和大小选择器来选择文件。
文件名选择器帮您根据文件名称或后缀来选择文件。不分大小写。
符号使用:
和:空格( )、+
不包含:-
或:|
转义:一对英文引号("");
匹配开头:^
匹配结尾:$
例如:
选中所有名称中包含有“eMule”或“0.49c”字眼,但不包含有“exe”字眼的:emule|0.49c -exe
选中所有名称的开头是“eMule”,结尾是“0.49c”的:^emule 0.49c$
选中所有名称中带有“eMule 0.49c”的(必须是“eMule 0.49c”,中间没有别的字符,不能是“eMule fake 0.49c”),需要转义:"emule 0.49c"
大小选择器帮您根据文件大小选择文件。