当前位置: 首页 >> 国产电影 >> 我来自北京之玛尼堆的秋天[国语配音/中文字幕].I.Come.From.Beijing.Tibetan.Mani.Stone.Pile.in.Autumn.2021.1080p >> 正文

我来自北京之玛尼堆的秋天[国语配音/中文字幕].I.Come.From.Beijing.Tibetan.Mani.Stone.Pile.in.Autumn.2021.1080p

2021年10月14日 16:02:04     电影发布:来源于网络     电影分类:国产电影     评论(0)    

我来自北京之玛尼堆的秋天[国语配音/中文字幕].I.Come.From.Beijing.Tibetan.Mani.Stone.Pile.in.Autumn.2021.1080p 剧情片 国产电影  第1张

◎译 名 我来自北京之玛尼堆的秋天 / I Come From Beijing: Tibetan Mani Stone Pile in Autumn

◎年 代 2021

◎产 地 中国大陆

◎类 别 剧情

◎语 言 汉语普通话

◎上映日期 2021-10-12(中国大陆网络)

◎IMDb链接 https://www.imdb.com/title//

◎豆瓣链接 https://movie.douban.com/subject/35206244/

◎片 长 82分钟

◎导 演 岳丽娜 Lina Yue (id:1313591)

◎编 剧 张弘弢 Hongtao Zhang (id:1442551)

◎演 员 岳丽娜 Lina Yue (id:1313591)

朱铁 Tie Zhu (id:1275666)

更登彭措 Genden Phuntsok (id:1363820)

赵晓坤 Xiaokun Zhao (id:1439342)

赵晓苏 Xiaosu Zhao (id:1365684)

陈俐君 Lijun Chen (id:1442389)

陈亮 Liang Chen (id:1397283)

李春海 Chunhai Li (id:1446607)

张焕引 Huanyin Zhang (id:1442387)

郭靖宇 Jingyu Guo (id:1313592)

◎标 签 扶贫 / 主旋律 / 2021 / 西藏 / 爱国主义 / 援藏 / 喜剧 / 剧情

◎简 介

影片讲述了援藏扶贫干部、志愿者们响应党中央号召,从大都市来到高原藏区,为当地的扶贫事业贡献自己的爱心和热量,甚至生命的故事。在教育扶贫的战场上,他们秉承“一个也不能少”的理念将辍学的孩子带回课堂;在产业扶贫的战场上,他们亲力亲为带领藏族同胞发展种植合作社,为贫困村引进特色文化产业。肖宁月作为挂职县委常委、副县长,面对当地复杂的人文情况和迫在眉睫的脱贫目标,稳住了阵脚,带领各地扶贫干部,团结各方援藏力量,与当地村民一起,最终完成了脱贫目标。在这一过程里,这群“高原助梦人”也在坎坷中逐渐完成自我精神力量的提升,来自上海的第一书记在劳动过程中突发心血管疾病,他的离开给肖宁月等人带来了不小的打击,他们能做的是擦干泪水继续投入攻坚脱贫的战场,完成他未竟的事业。

  1. ##### MediaInfo ######

  2. General

  3. Complete name : 我来自北京之玛尼堆的秋天.I.Come.From.Beijing.Tib[email protected]BBQDDQ.COM.mp4

  4. Format : MPEG-4

  5. Format profile : Base Media

  6. Codec ID : isom (isom/iso2/avc1/mp41)

  7. File size : 1.19 GiB

  8. Duration : 1 h 21 min

  9. Overall bit rate : 2 100 kb/s

  10. Writing application : Lavf58.29.100


  11. Video

  12. ID : 1

  13. Format : AVC

  14. Format/Info : Advanced Video Codec

  15. Format profile : [email protected]

  16. Format settings : CABAC / 3 Ref Frames

  17. Format settings, CABAC : Yes

  18. Format settings, Reference frames : 3 frames

  19. Codec ID : avc1

  20. Codec ID/Info : Advanced Video Coding

  21. Duration : 1 h 21 min

  22. Bit rate : 1 903 kb/s

  23. Width : 1 920 pixels

  24. Height : 712 pixels

  25. Display aspect ratio : 2.697

  26. Frame rate mode : Constant

  27. Frame rate : 25.000 FPS

  28. Color space : YUV

  29. Chroma subsampling : 4:2:0

  30. Bit depth : 8 bits

  31. Scan type : Progressive

  32. Bits/(Pixel*Frame) : 0.056

  33. Stream size : 1.08 GiB (91%)

  34. Writing library : qiyi.com vtc-test

  35. Color range : Limited

  36. Color primaries : BT.709

  37. Transfer characteristics : BT.709

  38. Matrix coefficients : BT.709

  39. Codec configuration box : avcC


  40. Audio

  41. ID : 2

  42. Format : AAC LC

  43. Format/Info : Advanced Audio Codec Low Complexity

  44. Codec ID : mp4a-40-2

  45. Duration : 1 h 21 min

  46. Bit rate mode : Constant

  47. Bit rate : 192 kb/s

  48. Channel(s) : 2 channels

  49. Channel layout : L R

  50. Sampling rate : 44.1 kHz

  51. Frame rate : 43.066 FPS (1024 SPF)

  52. Compression mode : Lossy

  53. Stream size : 110 MiB (9%)

  54. Default : Yes

  55. Alternate group : 1




复制代码



文件下载


除非特别注明,本文『我来自北京之玛尼堆的秋天[国语配音/中文字幕].I.Come.From.Beijing.Tibetan.Mani.Stone.Pile.in.Autumn.2021.1080p』来源于互联网机器人自动抓取,非本站原创。 浮游电影网不对本文拥有版权,如有侵犯,请联系邮箱:fuyouu#yandex.com[#换成@]投诉。我们会在15个工作日内删除。 但烦请转载时请标明出处:“本文转载于『浮游电影网』,原文地址:https://www.fuyouu.com/14949.html

评论吧骚年!

发表你的见解   

昵称*

E-mail*(建议输入,以便收到博主回复的提示邮件)

验证码*

您可以使用eMule或eMule Mod(Windows)、aMule(Win、Linux、Mac)等软件下载eD2k链接。。
eMule收藏集(.emulecollection)文件是您选中的所有链接的列表文件。eMule可以直接下载它们。
按住SHIFT键选择可以选中多个选择框。
可用文件名和大小选择器来选择文件。
文件名选择器帮您根据文件名称或后缀来选择文件。不分大小写。
符号使用:
和:空格( )、+
不包含:-
或:|
转义:一对英文引号("");
匹配开头:^
匹配结尾:$
例如:
选中所有名称中包含有“eMule”或“0.49c”字眼,但不包含有“exe”字眼的:emule|0.49c -exe
选中所有名称的开头是“eMule”,结尾是“0.49c”的:^emule 0.49c$
选中所有名称中带有“eMule 0.49c”的(必须是“eMule 0.49c”,中间没有别的字符,不能是“eMule fake 0.49c”),需要转义:"emule 0.49c"
大小选择器帮您根据文件大小选择文件。